BitTorrentTracker PerecTracker.org
BitTorrentTracker PerecTracker.org
    
Регистрация  ·  Вход
 
 · 
Забыли пароль?

  • Народные автомобили с Джеймсом Мэем / James May\'s Cars of the People (A Top Gear Special) / Серии 1-3 (3) [2014 г., UK, Автопередача, WEB-DLRip] VO и MVO (AlexFilm)

    Ответить на тему
     
    Автор Сообщение

    Light

    Создавать темы 15-Июл-2015 21:16

           

    [Цитировать]

    -Народные автомобили с Джеймсом Мэем
    James May's Cars of the People

    3 серии
    --Год выхода: 2014
    Страна: Великобритания
    Жанр: Автопередача
    Продолжительность: 3 х ~ 59 мин
    Озвучание 1 и 3 серий: профессиональное одноголосое закадровое (AlexFilm)
    Озвучание 2 серии: профессиональное многоголосое закадровое (AlexFilm)
    Субтитры: нет-Режиссёр: Том Уиттер (Tom Whitter)
    В ролях: Джеймс Мэй (James May)-Описание: Джеймс Мэй из "Топ Гир" представляет документальную передачу о "народных автомобилях". Рассказывая обо всех массовых машинах - от Жука до Кей-кара, - Мэй изучает их происхождение и влияние на историю. Каждый эпизод посвящён определённой теме: автомобили диктатур, микрокары и машины, о которых мы мечтаем. Мэй ездит на различных машинах, проводя их мини-тесты и рассказывая о них. Кроме того, Мэй путешествует по всему миру, посещая те его уголки, которые стали родиной автомобиля, за рулём которого он находится, где также проводит небольшие испытания и тесты.-Релиз:
    Перевод: Константин Кривоногов
    Монтаж и сведение звука: Сергей Мартынов
    Озвучивание: Константин Погодаев, Роман Сопко (2), Татьяна Манетина (2)- -Качество видео: WEB-DLRip
    Формат: AVI
    Видео: 720x400 (1.80:1), 25 fps, XviD ~1600 kbps avg, 0.222 bit/pixel
    Аудио Rus: 48 kHz, AC3 Dolby Digital, 2/0 (L,R) ch, ~192.00 kbps
    Аудио Eng: 48 kHz, AC3 Dolby Digital, 2/0 (L,R) ch, ~192.00 kbps-

    Скриншоты

    MediaInfo

    Format : AVI
    Format/Info : Audio Video Interleave
    File size : 845 MiB
    Duration : 59mn 6s
    Overall bit rate : 1 998 Kbps
    Movie name : James May's Cars of the People E01 @ AlexFilm
    Writing application : VirtualDubMod 1.5.10.2 (build 2542/release)
    Video
    ID : 0
    Format : MPEG-4 Visual
    Format profile : Advanced Simple@L5
    Format settings, BVOP : 1
    Format settings, QPel : No
    Format settings, GMC : No warppoints
    Format settings, Matrix : Default (MPEG)
    Codec ID : XVID
    Codec ID/Hint : XviD
    Duration : 59mn 6s
    Bit rate : 1 600 Kbps
    Width : 720 pixels
    Height : 400 pixels
    Display aspect ratio : 16:9
    Frame rate : 25.000 fps
    Color space : YUV
    Chroma subsampling : 4:2:0
    Bit depth : 8 bits
    Scan type : Progressive
    Compression mode : Lossy
    Bits/(Pixel*Frame) : 0.222
    Stream size : 676 MiB (80%)
    Writing library : XviD 1.2.1 (UTC 2008-12-04)
    Audio #1
    ID : 1
    Format : AC-3
    Format/Info : Audio Coding 3
    Mode extension : CM (complete main)
    Format settings, Endianness : Big
    Codec ID : 2000
    Duration : 59mn 6s
    Bit rate mode : Constant
    Bit rate : 192 Kbps
    Channel(s) : 2 channels
    Channel positions : Front: L R
    Sampling rate : 48.0 KHz
    Bit depth : 16 bits
    Compression mode : Lossy
    Stream size : 81.2 MiB (10%)
    Alignment : Split accross interleaves
    Interleave, duration : 40 ms (1.00 video frame)
    Interleave, preload duration : 500 ms
    Title : Russian (AlexFilm)
    Audio #2
    ID : 2
    Format : AC-3
    Format/Info : Audio Coding 3
    Mode extension : CM (complete main)
    Format settings, Endianness : Big
    Codec ID : 2000
    Duration : 59mn 6s
    Bit rate mode : Constant
    Bit rate : 192 Kbps
    Channel(s) : 2 channels
    Channel positions : Front: L R
    Sampling rate : 48.0 KHz
    Bit depth : 16 bits
    Compression mode : Lossy
    Stream size : 81.2 MiB (10%)
    Alignment : Split accross interleaves
    Interleave, duration : 40 ms (1.00 video frame)
    Interleave, preload duration : 500 ms
    Title : English
    -Раздачи Top Gear в озвучке AlexFilmРаздачи James May's Cars of the People в озвучке AlexFilm-
    Скачать .torrent

    Скачать торрент-файл бесплатно и на максимальной скорости!

    Как скачивать? · Что такое торрент? · Рейтинг и ограничения

    !ВНИМАНИЕ!
    Сайт не распространяет и не хранит электронные версии произведений, а занимается лишь лишь предоставлением доступа к создаваемому пользователями каталогу ссылок на торрент-файлы, которые содержат только списки хеш-сумм, убедительная просьба с жалобами обращаться напрямую к пользователю. Файлы для обмена на трекере предоставлены пользователями сайта, и администрация не несёт ответственности за их содержание. Просьба не заливать файлы, защищенные авторскими правами, а также файлы нелегального содержания!


    _________________
    [Профиль] [ЛС]
    Показать сообщения:    
    Ответить на тему

    Текущее время: Сегодня, в 04:20

    Часовой пояс: GMT + 2



    Вы не можете начинать темы
    Вы не можете отвечать на сообщения
    Вы не можете редактировать свои сообщения
    Вы не можете удалять свои сообщения
    Вы не можете голосовать в опросах
    Вы не можете прикреплять файлы к сообщениям
    Вы не можете скачивать файлы