BitTorrentTracker PerecTracker.org
BitTorrentTracker PerecTracker.org
    
Регистрация  ·  Вход
 
 · 
Забыли пароль?

  • Топ Гир: Спецвыпуск в Бирме / Top Gear: The Burma Special (Расширенная версия) [2014 г., UK, Автопередача, BDRip] MVO (AlexFilm)

    Ответить на тему
     
    Автор Сообщение

    Light

    Создавать темы 15-Июл-2015 21:16

           

    [Цитировать]

    -Топ Гир: Спецвыпуск в Бирме
    Top Gear: The Burma Special
    (Расширенная версия)
    --Год выхода: 2014
    Страна: Великобритания
    Жанр: Автопередача
    Продолжительность: 02:15:19
    Озвучание: профессиональное многоголосое закадровое (AlexFilm)
    Субтитры: нет-Режиссёр: Кит Робинсон (Kit Lynch-Robinson)
    В ролях: Джереми Кларксон (Jeremy Clarkson), Ричард Хаммонд (Richard Hammond), Джеймс Мэй (James May)-Описание: В увлекательном и полном приключений путешествии Ричард Хаммонд, Джереми Кларксон и Джеймс Мэй отправятся через Бирму в Таиланд для того, чтобы взяться за сооружение моста через реку Квай.-Релиз:
    Перевод: Константин Кривоногов
    Монтаж и сведение звука: Михаил Шорыгин
    Роли озвучивали:
  • Роман Сопко
  • Александр Дасевич
  • Константин Погодаев
  • Татьяна Манетина- -Качество видео: BDRip
    Формат: AVI
    Видео: 720x400 (1.80:1), 25 fps, XviD ~1600 kbps avg, 0.22 bit/pixel
    Аудио Rus: 48 kHz, AC3 Dolby Digital, 2/0 (L,R) ch, ~192.00 kbps
    Аудио Eng: 48 kHz, AC3 Dolby Digital, 2/0 (L,R) ch, ~192.00 kbps-Цитата:
    Цитата:

    Переведено и озвучено при поддержке пользователей AlexFilm: Annie Solomina, Skittles3SC, FeonoR, _alk0g0lik_, iosatori

    -

    Скриншоты

    MediaInfo

    Format : AVI
    Format/Info : Audio Video Interleave
    File size : 1.89 GiB
    Duration : 2h 15mn
    Overall bit rate : 1 998 Kbps
    Movie name : Top Gear: The Burma Special @ AlexFilm
    Writing application : VirtualDubMod 1.5.10.2 (build 2542/release)
    Video
    ID : 0
    Format : MPEG-4 Visual
    Format profile : Advanced Simple@L5
    Format settings, BVOP : 1
    Format settings, QPel : No
    Format settings, GMC : No warppoints
    Format settings, Matrix : Default (MPEG)
    Codec ID : XVID
    Codec ID/Hint : XviD
    Duration : 2h 15mn
    Bit rate : 1 600 Kbps
    Width : 720 pixels
    Height : 400 pixels
    Display aspect ratio : 16:9
    Frame rate : 25.000 fps
    Color space : YUV
    Chroma subsampling : 4:2:0
    Bit depth : 8 bits
    Scan type : Progressive
    Compression mode : Lossy
    Bits/(Pixel*Frame) : 0.222
    Stream size : 1.51 GiB (80%)
    Writing library : XviD 1.2.1 (UTC 2008-12-04)
    Audio #1
    ID : 1
    Format : AC-3
    Format/Info : Audio Coding 3
    Mode extension : CM (complete main)
    Format settings, Endianness : Big
    Codec ID : 2000
    Duration : 2h 15mn
    Bit rate mode : Constant
    Bit rate : 192 Kbps
    Channel(s) : 2 channels
    Channel positions : Front: L R
    Sampling rate : 48.0 KHz
    Bit depth : 16 bits
    Compression mode : Lossy
    Stream size : 186 MiB (10%)
    Alignment : Split accross interleaves
    Interleave, duration : 40 ms (1.00 video frame)
    Interleave, preload duration : 500 ms
    Title : Russian (AlexFilm)
    Audio #2
    ID : 2
    Format : AC-3
    Format/Info : Audio Coding 3
    Mode extension : CM (complete main)
    Format settings, Endianness : Big
    Codec ID : 2000
    Duration : 2h 15mn
    Bit rate mode : Constant
    Bit rate : 192 Kbps
    Channel(s) : 2 channels
    Channel positions : Front: L R
    Sampling rate : 48.0 KHz
    Bit depth : 16 bits
    Compression mode : Lossy
    Stream size : 186 MiB (10%)
    Alignment : Split accross interleaves
    Interleave, duration : 40 ms (1.00 video frame)
    Interleave, preload duration : 500 ms
    Title : English
    -Раздачи Top Gear в озвучке AlexFilm-

  • _________________
    [Профиль] [ЛС]
    Показать сообщения:    
    Ответить на тему

    Текущее время: Сегодня, в 12:48

    Часовой пояс: GMT + 2



    Вы не можете начинать темы
    Вы не можете отвечать на сообщения
    Вы не можете редактировать свои сообщения
    Вы не можете удалять свои сообщения
    Вы не можете голосовать в опросах
    Вы не можете прикреплять файлы к сообщениям
    Вы не можете скачивать файлы