BitTorrentTracker PerecTracker.org
BitTorrentTracker PerecTracker.org
    
Регистрация  ·  Вход
 
 · 
Забыли пароль?

  • Любит / Не любит / Take This Waltz (Сара Полли / Sarah Polley) [2011, Канада, Испания, Япония, драма, комедия, HDRip] MVO

    Ответить на тему
     
    Автор Сообщение

    Light

    Создавать темы 15-Июл-2015 04:28

           

    [Цитировать]

    Любит / Не любит / Take This Waltz
    Страна: Канада, Испания, Япония
    Жанр: драма, комедия
    Год выпуска: 2011
    Продолжительность: 01:56:25
    Перевод: Профессиональный (многоголосый закадровый)
    Cубтитры: нет

    Режиссер: Сара Полли / Sarah Polley
    В ролях: Мишель Уильямс, Сет Роген, Люк Кирби, Сара Силверман, Дженнифер Подемски, Дайэн Д’Акила, Ванесса Коэльо, Грэхэм Эбби, Дэмиен Аткинс, Аарон Абрамс
    Описание: Когда Марго впервые встречает Дэниэла, напряжение между ними возникает мгновенно. Вскоре после их случайного знакомства выясняется, что Дэниэл — новый сосед Марго и ее мужа Лу.28-летняя писательница Марго шесть лет замужем за Лу, успешным автором кулинарных книг. Оба счастливы в своей уютной размерен- ной жизни в пригороде Торонто и абсолютно уверены в своих чувствах. Эмоции, которые Марго начинает испытывать к новому приятелю совершенно не похожи на то, что происходит у них с мужем. Лу — забавный, добрый, милый, и постоянно готовит курицу, работая над очередным кулинарным бестселлером (и это немного раздражает Марго). А с симпатичным соседом — жаркое лето, прогулки, разговоры, многозначительные взгляды, ночной бассейн, щемящее чувство запрета. Марго окончательно теряет равновесие…
    Качество видео: HDRip [Take.This.Waltz.2011.P.BDRip.720p.IRONCLUB.mkv]
    Формат видео: AVI
    Видео: 704x384 (1.83:1), 23.976 fps, XviD build 73 ~1593 kbps avg, 0.25 bit/pixel
    Аудио: 48 kHz, AC3 Dolby Digital, 2/0 (L,R) ch, ~192 kbps

    MediaInfo

    Общее
    Полное имя : H:\Take.This.Waltz.2011.hdrip_[1.46]_[teko].avi
    Формат : AVI
    Формат/Информация : Audio Video Interleave
    Размер файла : 1,46 Гбайт
    Продолжительность : 1 ч. 56 м.
    Общий поток : 1795 Кбит/сек
    Программа кодирования : VirtualDubMod 1.5.10.3 | www.virtualdub-fr.org || (build 2550/release)
    Библиотека кодирования : VirtualDubMod build 2550/release
    Видео
    Идентификатор : 0
    Формат : MPEG-4 Visual
    Профиль формата : Advanced Simple@L5
    Параметр BVOP формата : 1
    Параметр QPel формата : Нет
    Параметр GMC формата : Без точки перехода
    Параметр матрицы формата : Выборочная
    Идентификатор кодека : XVID
    Идентификатор кодека/Подсказка : XviD
    Продолжительность : 1 ч. 56 м.
    Битрейт : 1594 Кбит/сек
    Ширина : 704 пикселя
    Высота : 384 пикселя
    Соотношение сторон : 1,85:1
    Частота кадров : 23,976 кадра/сек
    Цветовое пространство : YUV
    Субдискретизация насыщенности : 4:2:0
    Битовая глубина : 8 бит
    Тип развёртки : Прогрессивная
    Метод сжатия : С потерями
    Бит/(Пиксели*Кадры) : 0.246
    Размер потока : 1,30 Гбайт (89%)
    Библиотека кодирования : XviD 73
    Аудио
    Идентификатор : 1
    Формат : AC-3
    Формат/Информация : Audio Coding 3
    Расширение режима : CM (complete main)
    Параметр Endianness формата : Big
    Идентификатор кодека : 2000
    Продолжительность : 1 ч. 56 м.
    Вид битрейта : Постоянный
    Битрейт : 192 Кбит/сек
    Каналы : 2 канала
    Расположение каналов : Front: L R
    Частота : 48,0 КГц
    Битовая глубина : 16 бит
    Метод сжатия : С потерями
    Размер потока : 160 Мбайт (11%)
    Выравнивание : Разделение по промежуткам
    Продолжительность промежутка : 42 мс. (1,00 видеокадр)
    Время предзагрузки промежутка : 500 мс.

    Скриншоты

    Релиз группы:

    -
    -
    Скачать .torrent

    Скачать торрент-файл бесплатно и на максимальной скорости!

    Как скачивать? · Что такое торрент? · Рейтинг и ограничения

    !ВНИМАНИЕ!
    Сайт не распространяет и не хранит электронные версии произведений, а занимается лишь лишь предоставлением доступа к создаваемому пользователями каталогу ссылок на торрент-файлы, которые содержат только списки хеш-сумм, убедительная просьба с жалобами обращаться напрямую к пользователю. Файлы для обмена на трекере предоставлены пользователями сайта, и администрация не несёт ответственности за их содержание. Просьба не заливать файлы, защищенные авторскими правами, а также файлы нелегального содержания!


    _________________
    [Профиль] [ЛС]
    Показать сообщения:    
    Ответить на тему

    Текущее время: Сегодня, в 23:23

    Часовой пояс: GMT + 2



    Вы не можете начинать темы
    Вы не можете отвечать на сообщения
    Вы не можете редактировать свои сообщения
    Вы не можете удалять свои сообщения
    Вы не можете голосовать в опросах
    Вы не можете прикреплять файлы к сообщениям
    Вы не можете скачивать файлы