BitTorrentTracker PerecTracker.org
BitTorrentTracker PerecTracker.org
    
Регистрация  ·  Вход
 
 · 
Забыли пароль?

  • Джамиля / Ради тебя, Джамиля / Pour Djamila (Каролин Юппер / Caroline Huppert) [2011, Франция, драма, экранизация, DVB] Original (Fre) + Sub (Rus, Eng, Fre, Deu)

    Ответить на тему
     
    Автор Сообщение

    Light

    Создавать темы 15-Июл-2015 00:16

           

    [Цитировать]

    Джамиля
    Pour Djamila-Страна: Франция
    Жанр: драма, экранизация
    Год выпуска: 2011
    Продолжительность: 01:43:21Перевод: Субтитры (русский перевод Г. Мирзоевой, Éclair Group)
    Cубтитры: русские, английские, французские, немецкие, нидерландские, румынские
    Оригинальная аудиодорожка: французский
    Режиссер: Каролин Юппер / Caroline Huppert
    В ролях: Хафиза Херзи / Hafsia Herzi (Djamila Boupacha), Марина Хандс / Marina Hands (Gisèle Halimi), Доминик Реймон / Dominique Reymond (Simone de Beauvoir), Тома Жуанне / Thomas Jouannet (Claude Faux)
    Описание: По эссе Симоны де Бовуар / Simone de Beauvoir и Жизель Алими / Gisèle Halimi "Джамиля Бупаша / Djamila Boupacha" (1962).
    История, всколыхнувшая Францию в начале 1960-х и наряду со все накаляющейся политической ситуацией заставившая деятелей культуры и искусства, интеллигенцию и простых граждан выступить с массовым осуждением политики государства в вопросе колониальной войны в Алжире. Джамиля Бупаша была участницей Фронта национального освобождения Алжира во время франко-алжирской войны. В 1960 году была обвинена в попытке подложить бомбу, которую смогли вовремя обезвредить. В тюремном заключении вместе с отцом и братом подверглась изнасилованию, истязаниям и пыткам со стороны солдат французского легиона.
    Дело Джамили Бупаша приняло международный оборот, когда писательница с мировым именем Симона де Бовуар выступила с ее защитой в прессе и создала в ее поддержку комитет, в который вошли Жан-Поль Сартр, Луи Арагон, Эльза Триоле, Женевьев де Голь. Во время судебного процесса в июне 1961 года, на котором Джамиля обвинила своих мучителей, она сама была приговорена к смертной казни. В 1962 году в связи с окончанием войны в Алжире Джамиля попала под амнистию и вышла на свободу. Портрет Джамили Бупаша, украсивший обложку книги Симоны де Бовуар и Жизели Алими, написал Пабло Пикассо.
    Доп. информация: Hot Bird (13.0°E) TV5MONDE Europe DVB-S. Во время нефранцузской речи на экране дополнительно вшитые французские субтитры.
    Награды: 3 номинации Golden Nymph - Monte-Carlo TV Festival 2012 (лучший телефильм, лучший режиссер, лучшая телевизионная актриса - Marina Hands).

    Качество видео: DVB
    Формат видео: DVD Video
    Видео: MPEG Video 2, 720x576@1024x576 (16:9), 25 fps, ~3222 kbps avg, 0.311 bit/pixel
    Аудио: MPEG Audio 2, 2 ch, 48 kHz, ~192.00 kbps avg - французский
    Формат субтитров: prerendered (IDX+SUB)

    DVDInfo, MediaInfo

    Title: [apreder]Pour_Djamila(2011)DVBSize: 2.52 Gb ( 2 639 446,00 KBytes ) - DVD-5Enabled regions: 1, 2, 3, 4, 5, 6, 7, 8
    VTS_01 : Play Length: 01:43:21 Video: PAL 16:9 (720x576) VBR, Auto Letterboxed Audio: Francais (MPEG1, 2 ch) Subtitles: Russian English Francais Deutsch Nederlands Romanian
    ОбщееПолное имя : F:\My Torrents 3\[apreder]Pour_Djamila(2011)DVB\VIDEO_TS\VTS_01_1.VOBФормат : MPEG-PSРазмер файла : 1024 МбайтПродолжительность : 41 м.Режим общего битрейта : ПеременныйОбщий поток : 3484 Кбит/сек
    ВидеоИдентификатор : 224 (0xE0)Формат : MPEG VideoВерсия формата : Version 2Профиль формата : Main@MainПараметр BVOP формата : ДаПараметр матрицы формата : ВыборочнаяПараметр GOP формата : M=4, N=12Format_Settings_PictureStructure : FrameПродолжительность : 41 м.Вид битрейта : ПеременныйБитрейт : 3222 Кбит/секШирина : 720 пикселейВысота : 576 пикселейСоотношение сторон : 16:9Частота кадров : 25,000 кадров/секСтандарт вещания : PALЦветовое пространство : YUVСубдискретизация насыщенности : 4:2:0Битовая глубина : 8 битТип развёртки : ЧересстрочнаяПорядок развёртки : Верхнее поле первоеМетод сжатия : С потерямиБит/(Пиксели*Кадры) : 0.311Временной код первого кадра : 00:00:00:00Оригинал временного кода : Group of pictures headerРазмер потока : 947 Мбайт (92%)
    АудиоИдентификатор : 192 (0xC0)Формат : MPEG AudioВерсия формата : Version 1Профиль формата : Layer 2Продолжительность : 41 м.Вид битрейта : ПостоянныйБитрейт : 192 Кбит/секКаналы : 2 каналаЧастота : 48,0 КГцМетод сжатия : С потерямиРазмер потока : 56,4 Мбайт (6%)
    Текст #1Идентификатор : 189 (0xBD)-32 (0x20)Формат : RLEФормат/Информация : Run-length encodingРежим смешивания : DVD-VideoПродолжительность : 40 м.Задержка видео : 10 с.
    Текст #2Идентификатор : 189 (0xBD)-33 (0x21)Формат : RLEФормат/Информация : Run-length encodingРежим смешивания : DVD-VideoПродолжительность : 40 м.Задержка видео : 11 с.
    Текст #3Идентификатор : 189 (0xBD)-35 (0x23)Формат : RLEФормат/Информация : Run-length encodingРежим смешивания : DVD-VideoПродолжительность : 40 м.Задержка видео : 11 с.
    Текст #4Идентификатор : 189 (0xBD)-36 (0x24)Формат : RLEФормат/Информация : Run-length encodingРежим смешивания : DVD-VideoПродолжительность : 40 м.Задержка видео : 11 с.
    Текст #5Идентификатор : 189 (0xBD)-37 (0x25)Формат : RLEФормат/Информация : Run-length encodingРежим смешивания : DVD-VideoПродолжительность : 40 м.Задержка видео : 11 с.
    Текст #6Идентификатор : 189 (0xBD)-34 (0x22)Формат : RLEФормат/Информация : Run-length encodingРежим смешивания : DVD-Video

    Скриншот c названием фильма

    Скриншоты

    Резервные скриншоты


    -[599]
    Скачать .torrent

    Скачать торрент-файл бесплатно и на максимальной скорости!

    Как скачивать? · Что такое торрент? · Рейтинг и ограничения

    !ВНИМАНИЕ!
    Сайт не распространяет и не хранит электронные версии произведений, а занимается лишь лишь предоставлением доступа к создаваемому пользователями каталогу ссылок на торрент-файлы, которые содержат только списки хеш-сумм, убедительная просьба с жалобами обращаться напрямую к пользователю. Файлы для обмена на трекере предоставлены пользователями сайта, и администрация не несёт ответственности за их содержание. Просьба не заливать файлы, защищенные авторскими правами, а также файлы нелегального содержания!


    _________________
    [Профиль] [ЛС]
    Показать сообщения:    
    Ответить на тему

    Текущее время: Сегодня, в 18:42

    Часовой пояс: GMT + 2



    Вы не можете начинать темы
    Вы не можете отвечать на сообщения
    Вы не можете редактировать свои сообщения
    Вы не можете удалять свои сообщения
    Вы не можете голосовать в опросах
    Вы не можете прикреплять файлы к сообщениям
    Вы не можете скачивать файлы