BitTorrentTracker PerecTracker.org
BitTorrentTracker PerecTracker.org
    
Регистрация  ·  Вход
 
 · 
Забыли пароль?

  • Ночной беглец / Run All Night (Хауме Кольет-Серра / Jaume Collet-Serra) [2015, США, боевик, криминал, драма, BDRip 720p] Dub + AVO (Гаврилов) + 2x VO (Яроцкий, Есарев) + Original Eng + Sub (Rus, Ukr, Eng)

    Ответить на тему
     
    Автор Сообщение

    Flirldrerve

    Создавать темы 14-Июл-2015 20:04

           

    [Цитировать]

    -Ночной беглец / Run All Night«Одна ночь, чтобы свести счёты»Страна: США
    Студия: Energy Entertainment, RatPac-Dune Entertainment, Vertigo Entertainment
    Жанр: боевик, криминал, драма
    Год выпуска: 2015
    Продолжительность: 01:54:21-Перевод 1: Профессиональный (полное дублирование) BD EUR
    Перевод 2: Авторский (одноголосый, закадровый) А. Гаврилов
    Перевод 3: Одноголосый (закадровый) М. Яроцкий a.k.a kyberpunk
    Перевод 4: Одноголосый (закадровый) Д. Есарев
    Оригинальная аудиодорожка: английская
    Cубтитры: русские, украинские, английские
    Режиссер: Хауме Кольет-Серра / Jaume Collet-Serra
    В ролях: Лиам Нисон, Юэль Киннаман, Коммон, Эд Харрис, Бойд Холбрук, Брюс МакГилл, Дженезис Родригез, Винсент Д’Онофрио, Луис Смит, Бо Напп
    Описание: Фильм расскажет историю киллера, вступившего в конфликт с бывшим боссом и в итоге вынужденного пуститься в бега, чтобы защитить свою семью от преследования мафией и властями.-
    Сэмпл: скачать-Релиз от -
    Автор рипа: Elheym
    Качество: BDRip 720p (источник: / Blu-ray EUR [RUN_ALL_NIGHT_HDCLUB] / 1080p)
    Контейнер: MKV
    Видео: 1280x534 (2.40:1), 23.976 fps, MPEG-4 AVC, ~7600 kbps avg, 0.464 bit/pixel
    Аудио #1: Русский: AC3, 5.1, 48 kHz, ~640 Кбит/с | Профессиональный (полное дублирование) BD EUR |
    Аудио #2: Русский: AC3, 5.1, 48 kHz, ~640 Кбит/с | Авторский (одноголосый, закадровый) А. Гаврилов | *thx dalemake*
    Аудио #3: Русский: AC3, 5.1, 48 kHz, ~640 Кбит/с | Одноголосый (закадровый) М. Яроцкий a.k.a kyberpunk |
    Аудио #4: Русский: AC3, 5.1, 48 kHz, ~640 Кбит/с | Одноголосый (закадровый) Д. Есарев |
    Аудио #5: Английский: AC3, 5.1, 48 kHz, ~640 Кбит/с | Оригинал |
    Субтитры: русские (полные х2, форсированные: iTunes), украинские (полные: iTunes), английские (полные, SDH, SDH цветные)
    Главы: Присутствуют, сохранены оригинальные

    MediaInfo

    Уникальный идентификатор : 210690565258237563701946846701506041203 (0x9E8186E07F8C9972B3D73B9C07B89573)
    Полное имя : Run.All.Night.2015.720p.BluRay.4xRus.Eng.-HQCLUB.mkv
    Формат : Matroska
    Версия формата : Version 2
    Размер файла : 8,63 Гбайт
    Продолжительность : 1 ч. 54 м.
    Общий поток : 10,8 Мбит/сек
    Название фильма : Ночной беглец / Run All Night (2015) BDRip 720p by HQCLUB [Elheym]
    Дата кодирования : UTC 2015-07-11 20:00:01
    Программа кодирования : mkvmerge v5.2.0 ('I can't explain') built on Dec 18 2011 18:12:03
    Библиотека кодирования : libebml v1.2.3 + libmatroska v1.3.0
    Attachements : Cover.jpg
    Видео
    Идентификатор : 1
    Формат : AVC
    Формат/Информация : Advanced Video Codec
    Профиль формата : High@L4.1
    Параметр CABAC формата : Да
    Параметр ReFrames формата : 12 кадров
    Идентификатор кодека : V_MPEG4/ISO/AVC
    Продолжительность : 1 ч. 54 м.
    Битрейт : 7600 Кбит/сек
    Ширина : 1280 пикселей
    Высота : 534 пикселя
    Соотношение сторон : 2,40:1
    Режим частоты кадров : Постоянный
    Частота кадров : 23,976 кадра/сек
    Цветовое пространство : YUV
    Субдискретизация насыщенности : 4:2:0
    Битовая глубина : 8 бит
    Тип развёртки : Прогрессивная
    Бит/(Пиксели*Кадры) : 0.464
    Размер потока : 5,90 Гбайт (68%)
    Заголовок : Ночной беглец / Run All Night (2015) BDRip 720p by HQCLUB [Elheym]
    Библиотека кодирования : x264 core 146 r0+2586 e393126 t_mod_Custom [8-bit@all X86_64]
    Настройки программы : cabac=1 / ref=12 / deblock=1:-2:-2 / analyse=0x3:0x113 / me=umh / subme=11 / psy=1 / fade_compensate=0.00 / psy_rd=1.10:0.15 / mixed_ref=1 / me_range=32 / chroma_me=1 / trellis=2 / 8x8dct=1 / cqm=0 / deadzone=21,11 / fast_pskip=0 / chroma_qp_offset=-3 / threads=6 / lookahead_threads=2 / sliced_threads=0 / nr=0 / decimate=0 / interlaced=0 / bluray_compat=0 / constrained_intra=0 / fgo=0 / bframes=12 / b_pyramid=2 / b_adapt=2 / b_bias=0 / direct=3 / weightb=1 / open_gop=0 / weightp=2 / keyint=240 / keyint_min=23 / scenecut=40 / intra_refresh=0 / rc_lookahead=80 / rc=2pass / mbtree=0 / bitrate=7600 / ratetol=1.0 / qcomp=0.85 / qpmin=0:0:0 / qpmax=69:69:69 / qpstep=4 / cplxblur=20.0 / qblur=0.5 / vbv_maxrate=50000 / vbv_bufsize=62500 / nal_hrd=none / filler=0 / ip_ratio=1.40 / pb_ratio=1.30 / aq=2:0.65 / aq-sensitivity=10.00 / aq-factor=1.00:1.00:1.00 / aq2=0 / aq3=4:[0.50:0.50]:[0.50:0.50]:[0.50:0.50]:[0.50:0.50] / aq3-sensitivity=10.00 / aq3-factor=[1.00:1.00]:[1.00:1.00]:[1.00:1.00] / aq3-boundary=192:64:24 / zones=158590,164512,b=0.24
    Язык : English
    Default : Да
    Forced : Нет
    Аудио #1
    Идентификатор : 2
    Формат : AC-3
    Формат/Информация : Audio Coding 3
    Расширение режима : CM (complete main)
    Параметр Endianness формата : Big
    Идентификатор кодека : A_AC3
    Продолжительность : 1 ч. 54 м.
    Вид битрейта : Постоянный
    Битрейт : 640 Кбит/сек
    Каналы : 6 каналов
    Расположение каналов : Front: L C R, Side: L R, LFE
    Частота : 48,0 КГц
    Метод сжатия : С потерями
    Размер потока : 523 Мбайт (6%)
    Заголовок : АС3 5.1 @ 640 kbps - Dub, BD EUR
    Язык : Russian
    Default : Нет
    Forced : Нет
    Аудио #2
    Идентификатор : 3
    Формат : AC-3
    Формат/Информация : Audio Coding 3
    Расширение режима : CM (complete main)
    Параметр Endianness формата : Big
    Идентификатор кодека : A_AC3
    Продолжительность : 1 ч. 54 м.
    Вид битрейта : Постоянный
    Битрейт : 640 Кбит/сек
    Каналы : 6 каналов
    Расположение каналов : Front: L C R, Side: L R, LFE
    Частота : 48,0 КГц
    Метод сжатия : С потерями
    Размер потока : 523 Мбайт (6%)
    Заголовок : АС3 5.1 @ 640 kbps - AVO, Gavrilov
    Язык : Russian
    Default : Нет
    Forced : Нет
    Аудио #3
    Идентификатор : 4
    Формат : AC-3
    Формат/Информация : Audio Coding 3
    Расширение режима : CM (complete main)
    Параметр Endianness формата : Big
    Идентификатор кодека : A_AC3
    Продолжительность : 1 ч. 54 м.
    Вид битрейта : Постоянный
    Битрейт : 640 Кбит/сек
    Каналы : 6 каналов
    Расположение каналов : Front: L C R, Side: L R, LFE
    Частота : 48,0 КГц
    Метод сжатия : С потерями
    Размер потока : 523 Мбайт (6%)
    Заголовок : АС3 5.1 @ 640 kbps - AVO, Jarockij [Uncensored]
    Язык : Russian
    Default : Нет
    Forced : Нет
    Аудио #4
    Идентификатор : 5
    Формат : AC-3
    Формат/Информация : Audio Coding 3
    Расширение режима : CM (complete main)
    Параметр Endianness формата : Big
    Идентификатор кодека : A_AC3
    Продолжительность : 1 ч. 54 м.
    Вид битрейта : Постоянный
    Битрейт : 640 Кбит/сек
    Каналы : 6 каналов
    Расположение каналов : Front: L C R, Side: L R, LFE
    Частота : 48,0 КГц
    Метод сжатия : С потерями
    Размер потока : 523 Мбайт (6%)
    Заголовок : АС3 5.1 @ 640 kbps - VO, Esarev [Uncensored]
    Язык : Russian
    Default : Нет
    Forced : Нет
    Аудио #5
    Идентификатор : 6
    Формат : AC-3
    Формат/Информация : Audio Coding 3
    Расширение режима : CM (complete main)
    Параметр Endianness формата : Big
    Идентификатор кодека : A_AC3
    Продолжительность : 1 ч. 54 м.
    Вид битрейта : Постоянный
    Битрейт : 640 Кбит/сек
    Каналы : 6 каналов
    Расположение каналов : Front: L C R, Side: L R, LFE
    Частота : 48,0 КГц
    Метод сжатия : С потерями
    Размер потока : 523 Мбайт (6%)
    Заголовок : АС3 5.1 @ 640 kbps - Original
    Язык : English
    Default : Нет
    Forced : Нет
    Текст #1
    Идентификатор : 7
    Формат : UTF-8
    Идентификатор кодека : S_TEXT/UTF8
    Идентификатор кодека/Информация : UTF-8 Plain Text
    Заголовок : Full, BD
    Язык : Russian
    Default : Нет
    Forced : Нет
    Текст #2
    Идентификатор : 8
    Формат : UTF-8
    Идентификатор кодека : S_TEXT/UTF8
    Идентификатор кодека/Информация : UTF-8 Plain Text
    Заголовок : Full, iTunes
    Язык : Russian
    Default : Нет
    Forced : Нет
    Текст #3
    Идентификатор : 9
    Формат : UTF-8
    Идентификатор кодека : S_TEXT/UTF8
    Идентификатор кодека/Информация : UTF-8 Plain Text
    Заголовок : Forced, iTunes
    Язык : Russian
    Default : Да
    Forced : Нет
    Текст #4
    Идентификатор : 10
    Формат : UTF-8
    Идентификатор кодека : S_TEXT/UTF8
    Идентификатор кодека/Информация : UTF-8 Plain Text
    Заголовок : Full, iTunes
    Язык : Ukrainian
    Default : Нет
    Forced : Нет
    Текст #5
    Идентификатор : 11
    Формат : UTF-8
    Идентификатор кодека : S_TEXT/UTF8
    Идентификатор кодека/Информация : UTF-8 Plain Text
    Заголовок : Full
    Язык : English
    Default : Нет
    Forced : Нет
    Текст #6
    Идентификатор : 12
    Формат : UTF-8
    Идентификатор кодека : S_TEXT/UTF8
    Идентификатор кодека/Информация : UTF-8 Plain Text
    Заголовок : SDH
    Язык : English
    Default : Нет
    Forced : Нет
    Текст #7
    Идентификатор : 13
    Формат : UTF-8
    Идентификатор кодека : S_TEXT/UTF8
    Идентификатор кодека/Информация : UTF-8 Plain Text
    Заголовок : SDH Colored
    Язык : English
    Default : Нет
    Forced : Нет
    Меню
    00:00:00.000 : :Chapter 01
    00:05:00.000 : :Chapter 02
    00:10:00.000 : :Chapter 03
    00:15:00.000 : :Chapter 04
    00:20:00.000 : :Chapter 05
    00:25:00.000 : :Chapter 06
    00:30:00.000 : :Chapter 07
    00:35:00.000 : :Chapter 08
    00:40:00.000 : :Chapter 09
    00:45:00.000 : :Chapter 10
    00:50:00.000 : :Chapter 11
    00:55:00.000 : :Chapter 12
    01:00:00.000 : :Chapter 13
    01:05:00.000 : :Chapter 14
    01:10:00.000 : :Chapter 15
    01:15:00.000 : :Chapter 16
    01:20:00.000 : :Chapter 17
    01:25:00.000 : :Chapter 18
    01:30:00.000 : :Chapter 19

    x264 log

    x264 [info]: frame I:1730 Avg QP:14.36 size:128896
    x264 [info]: frame P:38432 Avg QP:16.65 size: 64292
    x264 [info]: frame B:124351 Avg QP:18.26 size: 30743
    x264 [info]: consecutive B-frames: 3.6% 4.0% 10.5% 22.3% 15.9% 27.1% 5.7% 6.1% 2.1% 0.6% 0.6% 1.2% 0.3%
    x264 [info]: ref P L0: 45.6% 7.0% 19.6% 7.0% 5.9% 3.9% 3.6% 1.7% 1.7% 1.3% 1.3% 1.1% 0.3% 0.0%
    x264 [info]: ref B L0: 74.5% 12.2% 5.0% 2.7% 1.7% 1.4% 1.0% 0.6% 0.5% 0.3% 0.1%
    x264 [info]: ref B L1: 93.0% 7.0%

    Скриншоты

    Сравнения с исходником

    Источник- -Рип-
    Цитата:
    Цитата:

    За перевод А. Гаврилова большое спасибо пользователям форума hdtracker:
    Gross1978; Hattori Hanzo; marlboro-man; dwser; dunhill200; _MyxAmoP_; нетработе; Vimann; Brown15; Sonny Black; karantin66; Pain_70; Letyoha3; KerkP; GaryH; gtjuve; chef&chef; Chistobaev; nimph; Loki; Role; KR0Tik; Tagansky; kolibri2; fly32; vovyanskiy; saenwert; audiolubitel; Shumway
    Перевод Михаила Яроцкого доступен благодаря: dikii. Работа со звуком: Переводман.
    Перевод Дмитрия Есарева доступен благодаря: mihey10. Работа со звуком: mihaildns.
    Переводы: Михаила Яроцкого и Дмитрия Есарева - содержат нецензурную лексику!
    Скачать .torrent

    Скачать торрент-файл бесплатно и на максимальной скорости!

    Как скачивать? · Что такое торрент? · Рейтинг и ограничения

    !ВНИМАНИЕ!
    Сайт не распространяет и не хранит электронные версии произведений, а занимается лишь лишь предоставлением доступа к создаваемому пользователями каталогу ссылок на торрент-файлы, которые содержат только списки хеш-сумм, убедительная просьба с жалобами обращаться напрямую к пользователю. Файлы для обмена на трекере предоставлены пользователями сайта, и администрация не несёт ответственности за их содержание. Просьба не заливать файлы, защищенные авторскими правами, а также файлы нелегального содержания!


    _________________
    [Профиль] [ЛС]
    Показать сообщения:    
    Ответить на тему

    Текущее время: Сегодня, в 10:49

    Часовой пояс: GMT + 2



    Вы не можете начинать темы
    Вы не можете отвечать на сообщения
    Вы не можете редактировать свои сообщения
    Вы не можете удалять свои сообщения
    Вы не можете голосовать в опросах
    Вы не можете прикреплять файлы к сообщениям
    Вы не можете скачивать файлы