BitTorrentTracker PerecTracker.org
BitTorrentTracker PerecTracker.org
    
Регистрация  ·  Вход
 
 · 
Забыли пароль?

  • Любит / Не любит / Take This Waltz (Сара Полли / Sarah Polley) [2011, Канада, Испания, Япония, драма, комедия, HDRip] MVO

    Ответить на тему
     
    Автор Сообщение

    Light

    Создавать темы 14-Июл-2015 20:04

           

    [Цитировать]

    Любит / Не любит / Take This Waltz
    Страна: Канада, Испания, Япония
    Жанр: драма, комедия
    Год выпуска: 2011
    Продолжительность: 01:56:25
    Перевод: Профессиональный (многоголосый закадровый)
    Cубтитры: нет

    Режиссер: Сара Полли / Sarah Polley
    В ролях: Мишель Уильямс, Сет Роген, Люк Кирби, Сара Силверман, Дженнифер Подемски, Дайэн Д’Акила, Ванесса Коэльо, Грэхэм Эбби, Дэмиен Аткинс, Аарон Абрамс
    Описание: Когда Марго впервые встречает Дэниэла, напряжение между ними возникает мгновенно. Вскоре после их случайного знакомства выясняется, что Дэниэл — новый сосед Марго и ее мужа Лу.28-летняя писательница Марго шесть лет замужем за Лу, успешным автором кулинарных книг. Оба счастливы в своей уютной размерен- ной жизни в пригороде Торонто и абсолютно уверены в своих чувствах. Эмоции, которые Марго начинает испытывать к новому приятелю совершенно не похожи на то, что происходит у них с мужем. Лу — забавный, добрый, милый, и постоянно готовит курицу, работая над очередным кулинарным бестселлером (и это немного раздражает Марго). А с симпатичным соседом — жаркое лето, прогулки, разговоры, многозначительные взгляды, ночной бассейн, щемящее чувство запрета. Марго окончательно теряет равновесие…
    Качество видео: HDRip [Take.This.Waltz.2011.P.BDRip.720p.IRONCLUB.mkv]
    Формат видео: AVI
    Видео: 640x352 (1.82:1), 23.976 fps, XviD build 73 ~757 kbps avg, 0.14 bit/pixel
    Аудио: 48 kHz, MPEG Layer 3, 2 ch, ~128.00 kbps avg

    MediaInfo

    Общее
    Полное имя : H:\Take.This.Waltz.2011.hdrip_[745]_[teko].avi
    Формат : AVI
    Формат/Информация : Audio Video Interleave
    Размер файла : 745 Мбайт
    Продолжительность : 1 ч. 56 м.
    Общий поток : 895 Кбит/сек
    Программа кодирования : VirtualDubMod 1.5.10.3 | www.virtualdub-fr.org || (build 2550/release)
    Библиотека кодирования : VirtualDubMod build 2550/release
    Видео
    Идентификатор : 0
    Формат : MPEG-4 Visual
    Профиль формата : Advanced Simple@L5
    Параметр BVOP формата : 2
    Параметр QPel формата : Нет
    Параметр GMC формата : Без точки перехода
    Параметр матрицы формата : Выборочная
    Идентификатор кодека : XVID
    Идентификатор кодека/Подсказка : XviD
    Продолжительность : 1 ч. 56 м.
    Битрейт : 757 Кбит/сек
    Ширина : 640 пикселей
    Высота : 352 пикселя
    Соотношение сторон : 16:9
    Частота кадров : 23,976 кадра/сек
    Цветовое пространство : YUV
    Субдискретизация насыщенности : 4:2:0
    Битовая глубина : 8 бит
    Тип развёртки : Прогрессивная
    Метод сжатия : С потерями
    Бит/(Пиксели*Кадры) : 0.140
    Размер потока : 631 Мбайт (85%)
    Библиотека кодирования : XviD 73
    Аудио
    Идентификатор : 1
    Формат : MPEG Audio
    Версия формата : Version 1
    Профиль формата : Layer 3
    Идентификатор кодека : 55
    Идентификатор кодека/Подсказка : MP3
    Продолжительность : 1 ч. 56 м.
    Вид битрейта : Постоянный
    Битрейт : 128 Кбит/сек
    Каналы : 2 канала
    Частота : 48,0 КГц
    Метод сжатия : С потерями
    Размер потока : 107 Мбайт (14%)
    Выравнивание : Соединение по промежуткам
    Продолжительность промежутка : 42 мс. (1,00 видеокадр)
    Время предзагрузки промежутка : 504 мс.
    Библиотека кодирования : LAME3.98r
    Настройки программы : -m s -V 4 -q 2 -lowpass 17 -b 128

    Скриншоты

    Релиз группы:

    -
    -
    Скачать .torrent

    Скачать торрент-файл бесплатно и на максимальной скорости!

    Как скачивать? · Что такое торрент? · Рейтинг и ограничения

    !ВНИМАНИЕ!
    Сайт не распространяет и не хранит электронные версии произведений, а занимается лишь лишь предоставлением доступа к создаваемому пользователями каталогу ссылок на торрент-файлы, которые содержат только списки хеш-сумм, убедительная просьба с жалобами обращаться напрямую к пользователю. Файлы для обмена на трекере предоставлены пользователями сайта, и администрация не несёт ответственности за их содержание. Просьба не заливать файлы, защищенные авторскими правами, а также файлы нелегального содержания!


    _________________
    [Профиль] [ЛС]
    Показать сообщения:    
    Ответить на тему

    Текущее время: Сегодня, в 16:39

    Часовой пояс: GMT + 2



    Вы не можете начинать темы
    Вы не можете отвечать на сообщения
    Вы не можете редактировать свои сообщения
    Вы не можете удалять свои сообщения
    Вы не можете голосовать в опросах
    Вы не можете прикреплять файлы к сообщениям
    Вы не можете скачивать файлы