BitTorrentTracker PerecTracker.org
BitTorrentTracker PerecTracker.org
    
Регистрация  ·  Вход
 
 · 
Забыли пароль?

  • Рядовой Александр Матросов (Леонид Луков) [1947, военный, драма, DVDRip]. Дополненная версия.

    Ответить на тему
     
    Автор Сообщение

    Light

    Создавать темы 14-Июл-2015 03:16

           

    [Цитировать]

    Рядовой Александр Матросов (дополненная версия).
    Жанр: военный, драма
    Год выпуска: 1947
    Продолжительность: 01:21:26
    Режиссёр: Леонид Луков
    В ролях: Анатолий Игнатьев, Пётр Константинов, Константин Сорокин, Шамси Киямов, Лаврентий Масоха, Владимир Балашов, Олег Жаков, Михаил Кузнецов, Анатолий Нелидов, Фаина Раневская, Алексей Дикий, Ксения Денисова, Людмила Ершова, Георгий Юматов, Виталий Доронин, Иван Рыжов и др.
    Описание: Кинорассказ о славной короткой жизни рядового 254-го гвардейского стрелкового полка 19-летнего Александра Матросова. Следуя горячему патриотическому порыву, он добровольцем ушёл на фронт, был ранен в первом бою. После выздоровления продолжил службу. Был назначен исполняющим обязанности командира отделения и в ответственный момент боя заслонил своим телом амбразуру вражеского дзота, дав возможность своим товарищам атаковать укреплённые позиции врага.
    За свой подвиг Александр Матросов был посмертно удостоен звания Героя Советского Союза. Имя Матросова было присвоено его полку, а сам он навечно зачислен в списки 1-й роты этой части.

    Доп. информация: В 1963 году фильм был подвергнут цензуре: из картины изъяли эпизод со Сталиным, роль которого исполнил Алексей Дикий. К сожалению оригинальный вариант 1947 года найти до сих пор не удалось (по некоторым сведениям, первоначальная версия картины не сохранилась и в Госфильмофонде - но буду рад ошибиться).
    Эпизод со Сталиным был взят из DVD-рипа с китайской прокатной копией 1949 года ("Рядовой Александр Матросов" был первым советским худ. фильмом, приобретённым Китайской Народной Республикой для кинопроката).

    Все слова благодарности прошу адресовать коллегам:
    CrimsonAndrew - за перевод с мандарина на слух эпизода со Сталиным.
    dimadima - за озвучивание данного эпизода.
    Diamed1975 - за работу по созданию видео дополненной версии фильма.

    Релиз
    Семпл: http://multi-up.com/1058400
    Качество видео: DVDRip
    Формат видео: AVI
    Видео: 688x528 (4:3), 25 fps, XviD, 2276 Кбит/сек.
    Аудио: 192 Кбит/сек, 2 канала, 16 бит, 48 КГц, AC3

    MediaInfo

    Формат : AVI
    Формат/Информация : Audio Video Interleave
    Размер файла : 1,41 Гбайт
    Продолжительность : 1 ч. 21 м.
    Общий поток : 2478 Кбит/сек
    Программа кодирования : VirtualDubMod 1.5.10.2 (build 2540/release)
    Библиотека кодирования : VirtualDubMod build 2540/release
    Видео
    Идентификатор : 0
    Формат : MPEG-4 Visual
    Профиль формата : Advanced Simple@L5
    Параметр BVOP формата : 2
    Параметр QPel формата : Нет
    Параметр GMC формата : Без точки перехода
    Параметр матрицы формата : Default (MPEG)
    Идентификатор кодека : XVID
    Идентификатор кодека/Подсказка : XviD
    Продолжительность : 1 ч. 21 м.
    Битрейт : 2276 Кбит/сек
    Ширина : 688 пикселей
    Высота : 528 пикселей
    Соотношение сторон : 4:3
    Частота кадров : 25,000 кадров/сек
    Цветовое пространство : YUV
    Субдискретизация насыщенности : 4:2:0
    Битовая глубина : 8 бит
    Тип развёртки : Прогрессивная
    Метод сжатия : С потерями
    Бит/(Пиксели*Кадры) : 0.251
    Размер потока : 1,29 Гбайт (92%)
    Библиотека кодирования : XviD 64
    Аудио
    Идентификатор : 1
    Формат : AC-3
    Формат/Информация : Audio Coding 3
    Расширение режима : CM (complete main)
    Параметр Endianness формата : Big
    Идентификатор кодека : 2000
    Продолжительность : 1 ч. 21 м.
    Вид битрейта : Постоянный
    Битрейт : 192 Кбит/сек
    Каналы : 2 канала
    Расположение каналов : Front: L R
    Частота : 48,0 КГц
    Битовая глубина : 16 бит
    Метод сжатия : С потерями
    Размер потока : 112 Мбайт (8%)
    Выравнивание : Разделение по промежуткам
    Продолжительность промежутка : 40 мс. (1,00 видеокадр)
    Время предзагрузки промежутка : 500 мс.

    Скриншоты

    Советские киноплакаты

    Скачать .torrent

    Скачать торрент-файл бесплатно и на максимальной скорости!

    Как скачивать? · Что такое торрент? · Рейтинг и ограничения

    !ВНИМАНИЕ!
    Сайт не распространяет и не хранит электронные версии произведений, а занимается лишь лишь предоставлением доступа к создаваемому пользователями каталогу ссылок на торрент-файлы, которые содержат только списки хеш-сумм, убедительная просьба с жалобами обращаться напрямую к пользователю. Файлы для обмена на трекере предоставлены пользователями сайта, и администрация не несёт ответственности за их содержание. Просьба не заливать файлы, защищенные авторскими правами, а также файлы нелегального содержания!


    _________________
    [Профиль] [ЛС]
    Показать сообщения:    
    Ответить на тему

    Текущее время: Сегодня, в 18:16

    Часовой пояс: GMT + 2



    Вы не можете начинать темы
    Вы не можете отвечать на сообщения
    Вы не можете редактировать свои сообщения
    Вы не можете удалять свои сообщения
    Вы не можете голосовать в опросах
    Вы не можете прикреплять файлы к сообщениям
    Вы не можете скачивать файлы