BitTorrentTracker PerecTracker.org
BitTorrentTracker PerecTracker.org
    
Регистрация  ·  Вход
 
 · 
Забыли пароль?

  • Я вижу, я вижу / Ich seh, Ich seh (Северин Фиала / Severin Fiala, Вероника Франц / Veronika Franz) [2014, Австрия, драма, триллер, DVDRip-AVC] VO + Sub Rus + Original Ger

    Ответить на тему
     
    Автор Сообщение

    Light

    Создавать темы 14-Июл-2015 03:16

           

    [Цитировать]

    Я вижу, я вижу / Ich seh, Ich seh
    Страна: Австрия
    Жанр: драма, триллер
    Год выпуска: 2014
    Продолжительность: 01:39:49
    Перевод: Одноголосый закадровый
    Cубтитры: русские, английские, немецкие
    Оригинальная аудиодорожка: немецкий
    Режиссер: Северин Фиала / Severin Fiala, Вероника Франц / Veronika Franz
    В ролях: Сюзанна Вуэст / Susanne Wuest, Элиас Шварц / Elias Schwarz, Лукас Шварц / Lukas Schwarz, Hans Escher, Elfriede Schatz
    Описание: На окраине кукурузного поля в сельской глуши стоит дом. 10-летние близнецы ждут возвращения своей матери. Когда она приходит, ее лицо закрывают бинты после пластической операции. С этого момента все меняется — отчужденная и холодная, она постепенно изолирует их семью от внешнего мира. Мальчики начинают подозревать, что эта женщина — не их мать, и пытаются выяснить правду любой ценой.
    Сэмпл: http://multi-up.com/1058248
    Качество видео: DVDRip-AVC
    Формат видео: MKV
    Видео: AVC at 1248 Кбит/сек : 720 x 428 (2.393) at 25.000 fps
    Аудио 1: AC-3 at 192 Кбит/сек : 2 канала, 48,0 КГц Language : ru
    Аудио 2: AC-3 at 192 Кбит/сек : 2 канала, 48,0 КГц Language : nl
    Формат субтитров: softsub (SRT)
    Доп. информация о субтитрах: Русские внешние San-ya (Александр Голованов), английские встроенные отключаемые, немецкие встроенные отключаемые

    MediaInfo

    Общее
    Уникальный идентификатор : 229492183993149325062683289137295815128 (0xACA696401881643499E6691A2BBE71D8)
    Полное имя : F:\С моей озвучкой\Я вижу, я вижу\Ich Seh, Ich Seh.mkv
    Формат : Matroska
    Версия формата : Version 4 / Version 2
    Размер файла : 1,16 Гбайт
    Продолжительность : 1 ч. 39 м.
    Общий поток : 1665 Кбит/сек
    Дата кодирования : UTC 2015-07-07T16:54:39Z
    Программа кодирования : mkvmerge v7.9.0 ('Birds') 64bit
    Библиотека кодирования : Lavf56.1.0
    DURATION : 01:39:49.440000000
    NUMBER_OF_FRAMES : 187170
    NUMBER_OF_BYTES : 143746560
    _STATISTICS_WRITING_APP : mkvmerge v7.9.0 ('Birds') 64bit
    _STATISTICS_WRITING_DATE_UTC : 2015-07-12 19:46:32
    _STATISTICS_TAGS : BPS DURATION NUMBER_OF_FRAMES NUMBER_OF_BYTES
    Видео
    Идентификатор : 1
    Формат : AVC
    Формат/Информация : Advanced Video Codec
    Профиль формата : High@L4.1
    Параметр CABAC формата : Да
    Параметр ReFrames формата : 4 кадра
    Идентификатор кодека : V_MPEG4/ISO/AVC
    Продолжительность : 1 ч. 39 м.
    Битрейт : 1248 Кбит/сек
    Ширина : 720 пикселей
    Высота : 428 пикселей
    Соотношение сторон : 2,40:1
    Режим частоты кадров : Постоянный
    Частота кадров : 25,000 кадров/сек
    Цветовое пространство : YUV
    Субдискретизация насыщенности : 4:2:0
    Битовая глубина : 8 бит
    Тип развёртки : Прогрессивная
    Бит/(Пиксели*Кадры) : 0.162
    Размер потока : 891 Мбайт (75%)
    Библиотека кодирования : x264 core 144 r2525 40bb568
    Настройки программы : cabac=1 / ref=5 / deblock=1:-1:-1 / analyse=0x3:0x133 / me=umh / subme=7 / psy=1 / psy_rd=1.00:0.15 / mixed_ref=1 / me_range=16 / chroma_me=1 / trellis=1 / 8x8dct=1 / cqm=0 / deadzone=21,11 / fast_pskip=1 / chroma_qp_offset=-3 / threads=12 / lookahead_threads=2 / sliced_threads=0 / nr=0 / decimate=0 / interlaced=0 / bluray_compat=0 / constrained_intra=0 / bframes=3 / b_pyramid=1 / b_adapt=1 / b_bias=0 / direct=1 / weightb=1 / open_gop=0 / weightp=2 / keyint=250 / keyint_min=25 / scenecut=40 / intra_refresh=0 / rc_lookahead=40 / rc=crf / mbtree=1 / crf=18.0 / qcomp=0.60 / qpmin=0 / qpmax=69 / qpstep=4 / vbv_maxrate=62500 / vbv_bufsize=78125 / crf_max=0.0 / nal_hrd=none / filler=0 / ip_ratio=1.40 / aq=1:1.00
    Default : Да
    Forced : Нет
    Основные цвета : BT.601 PAL
    Характеристики трансфера : BT.709
    Коэффициенты матрицы : BT.601
    DURATION : 01:39:49.440000000
    NUMBER_OF_FRAMES : 149736
    NUMBER_OF_BYTES : 957363233
    _STATISTICS_WRITING_APP : mkvmerge v7.9.0 ('Birds') 64bit
    _STATISTICS_WRITING_DATE_UTC : 2015-07-12 19:46:32
    _STATISTICS_TAGS : BPS DURATION NUMBER_OF_FRAMES NUMBER_OF_BYTES
    Аудио #1
    Идентификатор : 2
    Формат : AC-3
    Формат/Информация : Audio Coding 3
    Расширение режима : CM (complete main)
    Параметр Endianness формата : Big
    Идентификатор кодека : A_AC3
    Продолжительность : 1 ч. 39 м.
    Вид битрейта : Постоянный
    Битрейт : 192 Кбит/сек
    Каналы : 2 канала
    Расположение каналов : Front: L R
    Частота : 48,0 КГц
    Битовая глубина : 16 бит
    Метод сжатия : С потерями
    Задержка видео : -80 мс.
    Размер потока : 137 Мбайт (12%)
    Язык : Russian
    Default : Да
    Forced : Нет
    Аудио #2
    Идентификатор : 3
    Формат : AC-3
    Формат/Информация : Audio Coding 3
    Расширение режима : CM (complete main)
    Параметр Endianness формата : Big
    Идентификатор кодека : A_AC3
    Продолжительность : 1 ч. 39 м.
    Вид битрейта : Постоянный
    Битрейт : 192 Кбит/сек
    Каналы : 2 канала
    Расположение каналов : Front: L R
    Частота : 48,0 КГц
    Битовая глубина : 16 бит
    Метод сжатия : С потерями
    Задержка видео : -80 мс.
    Размер потока : 137 Мбайт (12%)
    Язык : Dutch
    Default : Нет
    Forced : Нет
    DURATION : 01:39:02.630000000
    NUMBER_OF_FRAMES : 462
    NUMBER_OF_BYTES : 481250
    _STATISTICS_WRITING_APP : mkvmerge v7.9.0 ('Birds') 64bit
    _STATISTICS_WRITING_DATE_UTC : 2015-07-12 19:46:32
    _STATISTICS_TAGS : BPS DURATION NUMBER_OF_FRAMES NUMBER_OF_BYTES
    Текст #1
    Идентификатор : 4
    Формат : VobSub
    Режим смешивания : zlib
    Идентификатор кодека : S_VOBSUB
    Идентификатор кодека/Информация : The same subtitle format used on DVDs
    Язык : English
    Default : Нет
    Forced : Нет
    DURATION : 01:35:19.030000000
    NUMBER_OF_FRAMES : 461
    NUMBER_OF_BYTES : 20342
    _STATISTICS_WRITING_APP : mkvmerge v7.9.0 ('Birds') 64bit
    _STATISTICS_WRITING_DATE_UTC : 2015-07-12 19:46:32
    _STATISTICS_TAGS : BPS DURATION NUMBER_OF_FRAMES NUMBER_OF_BYTES
    Текст #2
    Идентификатор : 5
    Формат : ASS
    Идентификатор кодека : S_TEXT/ASS
    Идентификатор кодека/Информация : Advanced Sub Station Alpha
    Метод сжатия : Без потерь
    Язык : English
    Default : Да
    Forced : Да
    Меню
    00:00:00.000 : :Chapter 1
    00:06:16.520 : :Chapter 2
    00:12:59.760 : :Chapter 3
    00:19:58.160 : :Chapter 4
    00:28:02.440 : :Chapter 5
    00:34:00.920 : :Chapter 6
    00:45:17.000 : :Chapter 7
    00:51:55.320 : :Chapter 8
    01:02:26.280 : :Chapter 9
    01:08:09.280 : :Chapter 10
    01:21:00.240 : :Chapter 11
    01:29:11.880 : :Chapter 12

    Скриншоты

    Скачать .torrent

    Скачать торрент-файл бесплатно и на максимальной скорости!

    Как скачивать? · Что такое торрент? · Рейтинг и ограничения

    !ВНИМАНИЕ!
    Сайт не распространяет и не хранит электронные версии произведений, а занимается лишь лишь предоставлением доступа к создаваемому пользователями каталогу ссылок на торрент-файлы, которые содержат только списки хеш-сумм, убедительная просьба с жалобами обращаться напрямую к пользователю. Файлы для обмена на трекере предоставлены пользователями сайта, и администрация не несёт ответственности за их содержание. Просьба не заливать файлы, защищенные авторскими правами, а также файлы нелегального содержания!


    _________________
    [Профиль] [ЛС]
    Показать сообщения:    
    Ответить на тему

    Текущее время: Сегодня, в 10:50

    Часовой пояс: GMT + 2



    Вы не можете начинать темы
    Вы не можете отвечать на сообщения
    Вы не можете редактировать свои сообщения
    Вы не можете удалять свои сообщения
    Вы не можете голосовать в опросах
    Вы не можете прикреплять файлы к сообщениям
    Вы не можете скачивать файлы