BitTorrentTracker PerecTracker.org
BitTorrentTracker PerecTracker.org
    
Регистрация  ·  Вход
 
 · 
Забыли пароль?

  • Монстры 2: Тёмный континент / Monsters: Dark Continent (Том Грин / Tom Green) [2014, Великобритания, Фантастика, триллер, драма, HDRip] MVO

    Ответить на тему
     
    Автор Сообщение

    Light

    Создавать темы 14-Июл-2015 03:16

           

    [Цитировать]

    Монстры 2: Тёмный континент / Monsters: Dark Continent
    Страна: Великобритания
    Жанр: Фантастика, триллер, драма
    Год выпуска: 2014
    Продолжительность: 01:59:03
    Перевод: Профессиональный (многоголосый закадровый)
    Cубтитры: нет
    Режиссер: Том Грин / Tom Green
    В ролях: Джонни Харрис, Сэм Кили, Джозеф Демпси, Кайл Соллер, Николас Пиннок, Паркер Сойерс, Филип Ардитти, София Бутелла, Михаэла Коэл, Уриель Эмиль, Джесси Надь
    Описание: Прошло 7 лет после событий первой части, и «зараженные зоны» распространились по всему миру. Теперь человечество борется за выживание. Эмилио, молодой врач, присоединяется к спасательной операции по поиску пропавших в самом центре территории монстров. Ужас того, о чем он узнает во время экспедиции, не поддается описанию...
    Сэмпл: http://multi-up.com/1058354
    Качество видео: HDRip
    Формат видео: AVI
    Видео: XviD, 720x304, 23.976 fps, 1554 Kbit/s
    Аудио: AC3, 48 KHz, 2 канала, 192 kbit/s

    MediaInfo

    ормат : AVI
    Формат/Информация : Audio Video Interleave
    Размер файла : 1,46 Гбайт
    Продолжительность : 1 ч. 59 м.
    Общий поток : 1755 Кбит/сек
    Программа кодирования : VirtualDubMod 1.5.10.2 (build 2540/release)
    Библиотека кодирования : VirtualDubMod build 2540/release
    Видео
    Идентификатор : 0
    Формат : MPEG-4 Visual
    Профиль формата : Advanced Simple@L5
    Параметр BVOP формата : 2
    Параметр QPel формата : Нет
    Параметр GMC формата : Без точки перехода
    Параметр матрицы формата : Default (MPEG)
    Идентификатор кодека : XVID
    Идентификатор кодека/Подсказка : XviD
    Продолжительность : 1 ч. 59 м.
    Битрейт : 1554 Кбит/сек
    Ширина : 720 пикселей
    Высота : 304 пикселя
    Соотношение сторон : 2,35:1
    Частота кадров : 23,976 кадра/сек
    Цветовое пространство : YUV
    Субдискретизация насыщенности : 4:2:0
    Битовая глубина : 8 бит
    Тип развёртки : Прогрессивная
    Метод сжатия : С потерями
    Бит/(Пиксели*Кадры) : 0.296
    Размер потока : 1,29 Гбайт (89%)
    Библиотека кодирования : XviD 1.2.1 (UTC 2008-12-04)
    Аудио
    Идентификатор : 1
    Формат : AC-3
    Формат/Информация : Audio Coding 3
    Расширение режима : CM (complete main)
    Параметр Endianness формата : Big
    Идентификатор кодека : 2000
    Продолжительность : 1 ч. 58 м.
    Вид битрейта : Постоянный
    Битрейт : 192 Кбит/сек
    Каналы : 2 канала
    Расположение каналов : Front: L R
    Частота : 48,0 КГц
    Битовая глубина : 16 бит
    Метод сжатия : С потерями
    Размер потока : 163 Мбайт (11%)
    Выравнивание : Разделение по промежуткам
    Продолжительность промежутка : 42 мс. (1,00 видеокадр)
    Время предзагрузки промежутка : 500 мс.

    Скриншоты

    Скачать .torrent

    Скачать торрент-файл бесплатно и на максимальной скорости!

    Как скачивать? · Что такое торрент? · Рейтинг и ограничения

    !ВНИМАНИЕ!
    Сайт не распространяет и не хранит электронные версии произведений, а занимается лишь лишь предоставлением доступа к создаваемому пользователями каталогу ссылок на торрент-файлы, которые содержат только списки хеш-сумм, убедительная просьба с жалобами обращаться напрямую к пользователю. Файлы для обмена на трекере предоставлены пользователями сайта, и администрация не несёт ответственности за их содержание. Просьба не заливать файлы, защищенные авторскими правами, а также файлы нелегального содержания!


    _________________
    [Профиль] [ЛС]
    Показать сообщения:    
    Ответить на тему

    Текущее время: Сегодня, в 06:16

    Часовой пояс: GMT + 2



    Вы не можете начинать темы
    Вы не можете отвечать на сообщения
    Вы не можете редактировать свои сообщения
    Вы не можете удалять свои сообщения
    Вы не можете голосовать в опросах
    Вы не можете прикреплять файлы к сообщениям
    Вы не можете скачивать файлы