BitTorrentTracker PerecTracker.org
BitTorrentTracker PerecTracker.org
    
Регистрация  ·  Вход
 
 · 
Забыли пароль?

  • Солнце, не свети / Sun Don\'t Shine (Эми Саймец / Amy Seimetz) [2012, США, криминальная драма, роуд-муви, DVB-AVC] DVO (Kino Polska) + Original (Eng)

    Ответить на тему
     
    Автор Сообщение

    Light

    Создавать темы 13-Июл-2015 23:04

           

    [Цитировать]

    Солнце, не свети
    Sun Don't Shine-Страна: США
    Жанр: криминальная драма, роуд-муви
    Год выпуска: 2012
    Продолжительность: 01:16:10Перевод: Профессиональный (двухголосый закадровый) по заказу Kino Polska на производственно-технической базе Студии "Акцент"
    Cубтитры: нет
    Оригинальная аудиодорожка: английский
    Режиссер: Эми Саймец / Amy Seimetz
    В ролях: Кейт Лин Шейл / Kate Lyn Sheil (Crystal), Кентакер Одли / Kentucker Audley (Leo)
    Описание: Мужчина и женщина едут по выжженной солнцем Флориде, в багажнике ненадежной машины — труп. Вокруг — живое, разве что руками не потрогать, беспокойство и рекламные щиты, названия которых интонируют то ли ностальгией, то ли неизвестностью. У бардачка хрустальная русалка, рядом пистолет. На запотевшем от волнения стекле нарисованное сердечко. Женщина сильно переживает, мужчина пытается все как-то наладить... (Dr.pro)
    Доп. информация: Filmbox Arthouse IPTV
    Награды: Специальный приз жюри лучшей женщине-режиссеру SXSW Film Festival 2012; приз за лучший независимый фильм Indiewire Critics' Poll 2012; 2 номинации Gotham Awards (лучший режиссер, лучший непрокатный фильм); др. награды.

    Качество видео: DVB-AVC
    Формат видео: MKV
    Видео: AVC (H.264), 720x576@1024x576 (16:9), 25 fps, ~1065 kbps avg, 0.103 bit/pixel
    Аудио 1: MPEG Audio 2, 2 ch, 48 kHz, ~128.00 kbps avg - русский
    Аудио 2: MPEG Audio 2, 2 ch, 48 kHz, ~128.00 kbps avg - английский

    MediaInfo

    ОбщееУникальный идентификатор : 254937977281080990334063068538977717718 (0xBFCB44B887DA6D29BF7743AD117D0DD6)Полное имя : F:\My Torrents 3\[apreder]Sun_Don't_Shine(2012)DVB.mkvФормат : MatroskaВерсия формата : Version 2Размер файла : 734 МбайтПродолжительность : 1 ч. 16 м.Общий поток : 1348 Кбит/секДата кодирования : UTC 2015-07-11 17:17:13Программа кодирования : mkvmerge v8.1.0 ('Psychedelic Postcard') 64bitБиблиотека кодирования : libebml v1.3.1 + libmatroska v1.4.2Attachements : cover.jpg / cover_small.jpg
    ВидеоИдентификатор : 3Формат : AVCФормат/Информация : Advanced Video CodecПрофиль формата : Main@L3Параметр CABAC формата : ДаПараметр ReFrames формата : 3 кадраИдентификатор кодека : V_MPEG4/ISO/AVCПродолжительность : 1 ч. 16 м.Битрейт : 1065 Кбит/секШирина : 720 пикселейВысота : 576 пикселейСоотношение сторон : 16:9Соотношение сторон в оригинале : 16:9Режим частоты кадров : ПостоянныйЧастота кадров : 25,000 кадров/секСтандарт вещания : ComponentЦветовое пространство : YUVСубдискретизация насыщенности : 4:2:0Битовая глубина : 8 битТип развёртки : ПрогрессивнаяПорядок развёртки : Верхнее поле первоеБит/(Пиксели*Кадры) : 0.103Размер потока : 580 Мбайт (79%)Default : ДаForced : Нетcolour_range : LimitedОсновные цвета : BT.601 PALХарактеристики трансфера : BT.470 System B, BT.470 System GКоэффициенты матрицы : BT.601
    Аудио #1Идентификатор : 1Формат : MPEG AudioВерсия формата : Version 1Профиль формата : Layer 2Идентификатор кодека : A_MPEG/L2Идентификатор кодека/Подсказка : MP2Продолжительность : 1 ч. 16 м.Вид битрейта : ПостоянныйБитрейт : 128 Кбит/секКаналы : 2 каналаЧастота : 48,0 КГцМетод сжатия : С потерямиЗадержка видео : -6 мс.Размер потока : 69,7 Мбайт (9%)Язык : RussianDefault : ДаForced : Нет
    Аудио #2Идентификатор : 2Формат : MPEG AudioВерсия формата : Version 1Профиль формата : Layer 2Идентификатор кодека : A_MPEG/L2Идентификатор кодека/Подсказка : MP2Продолжительность : 1 ч. 16 м.Вид битрейта : ПостоянныйБитрейт : 128 Кбит/секКаналы : 2 каналаЧастота : 48,0 КГцМетод сжатия : С потерямиЗадержка видео : -6 мс.Размер потока : 69,7 Мбайт (9%)Язык : EnglishDefault : НетForced : Нет

    Скриншот c названием фильма

    Скриншоты

    Резервные скриншоты


    -[2'455]
    Скачать .torrent

    Скачать торрент-файл бесплатно и на максимальной скорости!

    Как скачивать? · Что такое торрент? · Рейтинг и ограничения

    !ВНИМАНИЕ!
    Сайт не распространяет и не хранит электронные версии произведений, а занимается лишь лишь предоставлением доступа к создаваемому пользователями каталогу ссылок на торрент-файлы, которые содержат только списки хеш-сумм, убедительная просьба с жалобами обращаться напрямую к пользователю. Файлы для обмена на трекере предоставлены пользователями сайта, и администрация не несёт ответственности за их содержание. Просьба не заливать файлы, защищенные авторскими правами, а также файлы нелегального содержания!


    _________________
    [Профиль] [ЛС]
    Показать сообщения:    
    Ответить на тему

    Текущее время: Сегодня, в 22:26

    Часовой пояс: GMT + 2



    Вы не можете начинать темы
    Вы не можете отвечать на сообщения
    Вы не можете редактировать свои сообщения
    Вы не можете удалять свои сообщения
    Вы не можете голосовать в опросах
    Вы не можете прикреплять файлы к сообщениям
    Вы не можете скачивать файлы