BitTorrentTracker PerecTracker.org
BitTorrentTracker PerecTracker.org
    
Регистрация  ·  Вход
 
 · 
Забыли пароль?

  • Расскажи мне о моей судьбе / Dimmi che destino avro (Петер Марциас / Peter Marcias) [2012, Италия, драма, DVB-AVC] DVO (Kino Polska) + Original (Ita)

    Ответить на тему
     
    Автор Сообщение

    Light

    Создавать темы 13-Июл-2015 23:04

           

    [Цитировать]

    Расскажи мне о моей судьбе
    Dimmi che destino avrò-Страна: Италия
    Жанр: драма
    Год выпуска: 2012
    Продолжительность: 01:19:44Перевод: Профессиональный (двухголосый закадровый) по заказу Kino Polska на производственно-технической базе Студии "Акцент"
    Cубтитры: нет
    Оригинальная аудиодорожка: итальянский
    Режиссер: Петер Марциас / Peter Marcias
    В ролях: Лули Битри / Luli Bitri (Alina), Сальваторе Канталупо / Salvatore Cantalupo (Giampaolo Esposito), Давиде Каредду / Davide Careddu (Figlio di Giampaolo Esposito)
    Описание: Фильм о конце молодости и переход в пору зрелости. Алина, молодая женщина с цыганскими корнями, возвращается из Парижа, где некоторое время жила и работала, в родную деревушку на Сардинии недалеко от Кальяри, где знакомится с Джампало Эспозито, мужчиной средних лет, сотрудником полиции. У каждого из них свои проблемы в жизни: у нее – цыганская кровь, у него, любителя футбола, – сын-гомосексуалист. Это знакомство заставит обоих пересмотреть собственные стремления и отношение к миру.
    Доп. информация: Filmbox Arthouse IPTV. На территории РФ возрастное ограничение 18+.
    Награды: премия BAFF - Busto Arsizio Film Festival 2013; приз за лучший итальянский фильм Festival a Como 2013.

    Качество видео: DVB-AVC
    Формат видео: MKV
    Видео: AVC (H.264), 720x576@1024x576 (16:9), 25 fps, ~834 kbps avg, 0.081 bit/pixel
    Аудио 1: MPEG Audio 2, 2 ch, 48 kHz, ~128.00 kbps avg - русский
    Аудио 2: MPEG Audio 2, 2 ch, 48 kHz, ~128.00 kbps avg - итальянский

    MediaInfo

    ОбщееУникальный идентификатор : 219478240820000615037395760603300857860 (0xA51DF8BBAC5D08238EABC28C23AB8804)Полное имя : F:\My Torrents 3\[apreder]Dimmi_che_destino_avro(2012)DVB.mkvФормат : MatroskaВерсия формата : Version 2Размер файла : 634 МбайтПродолжительность : 1 ч. 19 м.Общий поток : 1112 Кбит/секДата кодирования : UTC 2015-07-11 19:01:50Программа кодирования : mkvmerge v8.1.0 ('Psychedelic Postcard') 64bitБиблиотека кодирования : libebml v1.3.1 + libmatroska v1.4.2Attachements : cover.jpg / cover_small.jpg
    ВидеоИдентификатор : 3Формат : AVCФормат/Информация : Advanced Video CodecПрофиль формата : Main@L3Параметр CABAC формата : ДаПараметр ReFrames формата : 3 кадраИдентификатор кодека : V_MPEG4/ISO/AVCБитрейт : 834 Кбит/секШирина : 720 пикселейВысота : 576 пикселейСоотношение сторон : 16:9Соотношение сторон в оригинале : 16:9Режим частоты кадров : ПеременныйЧастота кадров в оригинале : 25,000 кадров/секСтандарт вещания : ComponentЦветовое пространство : YUVСубдискретизация насыщенности : 4:2:0Битовая глубина : 8 битТип развёртки : ЧересстрочнаяПорядок развёртки : Верхнее поле первоеDefault : ДаForced : Нетcolour_range : LimitedОсновные цвета : BT.601 PALХарактеристики трансфера : BT.470 System B, BT.470 System GКоэффициенты матрицы : BT.601
    Аудио #1Идентификатор : 1Формат : MPEG AudioВерсия формата : Version 1Профиль формата : Layer 2Идентификатор кодека : A_MPEG/L2Идентификатор кодека/Подсказка : MP2Продолжительность : 1 ч. 19 м.Вид битрейта : ПостоянныйБитрейт : 128 Кбит/секКаналы : 2 каналаЧастота : 48,0 КГцМетод сжатия : С потерямиЗадержка видео : -58 мс.Размер потока : 73,0 Мбайт (12%)Язык : RussianDefault : ДаForced : Нет
    Аудио #2Идентификатор : 2Формат : MPEG AudioВерсия формата : Version 1Профиль формата : Layer 2Идентификатор кодека : A_MPEG/L2Идентификатор кодека/Подсказка : MP2Продолжительность : 1 ч. 19 м.Вид битрейта : ПостоянныйБитрейт : 128 Кбит/секКаналы : 2 каналаЧастота : 48,0 КГцМетод сжатия : С потерямиЗадержка видео : -58 мс.Размер потока : 73,0 Мбайт (12%)Язык : ItalianDefault : НетForced : Нет

    Скриншот c названием фильма

    Скриншоты

    Резервные скриншоты


    -[2'457]
    Скачать .torrent

    Скачать торрент-файл бесплатно и на максимальной скорости!

    Как скачивать? · Что такое торрент? · Рейтинг и ограничения

    !ВНИМАНИЕ!
    Сайт не распространяет и не хранит электронные версии произведений, а занимается лишь лишь предоставлением доступа к создаваемому пользователями каталогу ссылок на торрент-файлы, которые содержат только списки хеш-сумм, убедительная просьба с жалобами обращаться напрямую к пользователю. Файлы для обмена на трекере предоставлены пользователями сайта, и администрация не несёт ответственности за их содержание. Просьба не заливать файлы, защищенные авторскими правами, а также файлы нелегального содержания!


    _________________
    [Профиль] [ЛС]
    Показать сообщения:    
    Ответить на тему

    Текущее время: Сегодня, в 13:39

    Часовой пояс: GMT + 2



    Вы не можете начинать темы
    Вы не можете отвечать на сообщения
    Вы не можете редактировать свои сообщения
    Вы не можете удалять свои сообщения
    Вы не можете голосовать в опросах
    Вы не можете прикреплять файлы к сообщениям
    Вы не можете скачивать файлы