BitTorrentTracker PerecTracker.org
BitTorrentTracker PerecTracker.org
    
Регистрация  ·  Вход
 
 · 
Забыли пароль?

  • Мир забавен / The World Is Funny / Haolam Mats\'hik (Шеми Зархин / Shemi Zarhin) [2012, Израиль, драма, HDTVRip] + Sub Rus + Original Heb

    Ответить на тему
     
    Автор Сообщение

    Light

    Создавать темы 13-Июл-2015 18:52

           

    [Цитировать]

    Мир забавен / The World Is Funny / Haolam Mats'hik
    Страна: Израиль
    Жанр: драма
    Год выпуска: 2012
    Продолжительность: 02:01:52
    Перевод: Субтитры
    Cубтитры: русские (softsub, ASS), иврит (hardsub)
    Оригинальная аудиодорожка: иврит
    Режиссер: Шеми Зархин / Shemi Zarhin
    В ролях: Асси Леви, Эли Финиш, Данни Штег, Наама Шитрит, Ор Бен-Мелех, Моше Ашкенази, Оля Шур Селектар, Ехезкель Лазаров, Шломи Кориат, Ротем Зуссман-Коэн
    Описание: Повесть о двух братьях и их сестре, которых всю жизнь преследует какое-то страшное проклятие: все, кого они любят, покидают их.
    Доп. информация: 1 награда и 14 номинаций Израильской киноакадемии (2012).
    ,
    Сэмпл: http://www.mediafire.com/watch/6zaegi576qhlc4h/Samp...rld_Is_Funny.avi
    Качество видео: HDTVRip
    Формат видео: AVI
    Видео: XviD 624х352 16:9 25 кадров/сек 1465 Кбит/сек
    Аудио: MP3 48 КГц 2 канала 117 Кбит/сек
    Формат субтитров: softsub (ASS)

    Образец субтитров

    Dialogue: 0,0:00:45.42,0:00:47.60,Default,,0,0,0,,Когда Рахамим был 18-летним солдатом,
    Dialogue: 0,0:00:47.64,0:00:51.08,Default,,0,0,0,,как раз вспыхнула война Судного дня,\Nи основательно встряхнула ему мозги.
    Dialogue: 0,0:00:51.12,0:00:55.51,Default,,0,0,0,,"Мы согрешили пред Тобой..."
    Dialogue: 0,0:00:55.54,0:00:59.43,Default,,0,0,0,,Итак, он был немножко дурачок,\Nне от мира сего.
    Dialogue: 0,0:00:59.46,0:01:02.65,Default,,0,0,0,,А, когда появились сирийские десантники\Nи захватили его базу,
    Dialogue: 0,0:01:02.68,0:01:05.04,Default,,0,0,0,,Рахамим вообще был в душе и не слышал ничего,
    Dialogue: 0,0:01:05.08,0:01:06.76,Default,,0,0,0,,ни выстрелов, ни криков...
    Dialogue: 0,0:01:06.79,0:01:11.74,Default,,0,0,0,,"Сжалься над нами..."
    Dialogue: 0,0:01:11.78,0:01:15.79,Default,,0,0,0,,В какой-то момент в душ ворвался сирийский солдат\Nс винтовкой наготове.
    Dialogue: 0,0:01:15.83,0:01:18.06,Default,,0,0,0,,Рахамим увидел его и испугался...
    Dialogue: 0,0:01:18.09,0:01:20.51,Default,,0,0,0,,Сирийский солдат бросился на него,\Nчтобы прикончить,
    Dialogue: 0,0:01:20.54,0:01:24.31,Default,,0,0,0,,но не обратил внимания на мыло,\Nкоторое выпало из рук Рахамима.
    Dialogue: 0,0:01:24.34,0:01:27.54,Default,,0,0,0,,Сириец поскользнулся на мыле,\Nи покатился по полу,
    Dialogue: 0,0:01:27.57,0:01:30.58,Default,,0,0,0,,винтовка вылетела из его рук,\Nударилась о стену и выстрелила.
    Dialogue: 0,0:01:30.61,0:01:34.36,Default,,0,0,0,,Пуля попала сирийскому солдату в лоб.
    Dialogue: 0,0:01:35.02,0:01:38.51,Default,,0,0,0,,Только тогда Рахамим услышал\Nвыстрелы и шум снаружи.
    Dialogue: 0,0:01:38.55,0:01:40.42,Default,,0,0,0,,Не долго думая, он надел форму,
    Dialogue: 0,0:01:40.45,0:01:41.85,Default,,0,0,0,,которую снял с сирийского солдата,
    Dialogue: 0,0:01:41.88,0:01:45.89,Default,,0,0,0,,и обувь, взял его оружие и вышел наружу.
    Dialogue: 0,0:01:45.92,0:01:48.23,Default,,0,0,0,,Никто из сирийских солдат\Nне обратил на него внимания.
    Dialogue: 0,0:01:48.27,0:01:53.34,Default,,0,0,0,,Может быть, потому, что Рахамим с детства\Nговорил по-арабски с хорошим произношением.
    Dialogue: 0,0:01:53.37,0:01:56.26,Default,,0,0,0,,Так Рахамим превратился в сирийского солдата.

    MediaInfo

    Общее
    Полное имя : The World Is Funny.avi
    Формат : AVI
    Формат/Информация : Audio Video Interleave
    Размер файла : 1,36 Гбайт
    Продолжительность : 2 ч. 1 м.
    Режим общего битрейта : Переменный
    Общий поток : 1594 Кбит/сек
    Программа кодирования : VirtualDubMod 1.5.10.2 (build 2540/release)
    Библиотека кодирования : VirtualDubMod build 2540/release
    Видео
    Идентификатор : 0
    Формат : MPEG-4 Visual
    Профиль формата : Advanced Simple@L5
    Параметр BVOP формата : 2
    Параметр QPel формата : Нет
    Параметр GMC формата : Без точки перехода
    Параметр матрицы формата : Default (H.263)
    Режим смешивания : Сжатый битовый поток
    Идентификатор кодека : XVID
    Идентификатор кодека/Подсказка : XviD
    Продолжительность : 2 ч. 1 м.
    Битрейт : 1465 Кбит/сек
    Ширина : 624 пикселя
    Высота : 352 пикселя
    Соотношение сторон : 16:9
    Частота кадров : 25,000 кадров/сек
    Цветовое пространство : YUV
    Субдискретизация насыщенности : 4:2:0
    Битовая глубина : 8 бит
    Тип развёртки : Прогрессивная
    Метод сжатия : С потерями
    Бит/(Пиксели*Кадры) : 0.267
    Размер потока : 1,25 Гбайт (92%)
    Библиотека кодирования : XviD 64
    Аудио
    Идентификатор : 1
    Формат : MPEG Audio
    Версия формата : Version 1
    Профиль формата : Layer 3
    Режим : Joint stereo
    Расширение режима : MS Stereo
    Идентификатор кодека : 55
    Идентификатор кодека/Подсказка : MP3
    Продолжительность : 2 ч. 1 м.
    Вид битрейта : Переменный
    Битрейт : 117 Кбит/сек
    Каналы : 2 канала
    Частота : 48,0 КГц
    Метод сжатия : С потерями
    Размер потока : 102 Мбайт (7%)
    Выравнивание : Соединение по промежуткам
    Продолжительность промежутка : 24 мс. (0,60 видеокадр)
    Время предзагрузки промежутка : 493 мс.

    Скриншот c названием фильма

    Скриншоты




    Скачать .torrent

    Скачать торрент-файл бесплатно и на максимальной скорости!

    Как скачивать? · Что такое торрент? · Рейтинг и ограничения

    !ВНИМАНИЕ!
    Сайт не распространяет и не хранит электронные версии произведений, а занимается лишь лишь предоставлением доступа к создаваемому пользователями каталогу ссылок на торрент-файлы, которые содержат только списки хеш-сумм, убедительная просьба с жалобами обращаться напрямую к пользователю. Файлы для обмена на трекере предоставлены пользователями сайта, и администрация не несёт ответственности за их содержание. Просьба не заливать файлы, защищенные авторскими правами, а также файлы нелегального содержания!


    _________________
    [Профиль] [ЛС]
    Показать сообщения:    
    Ответить на тему

    Текущее время: Сегодня, в 04:37

    Часовой пояс: GMT + 2



    Вы не можете начинать темы
    Вы не можете отвечать на сообщения
    Вы не можете редактировать свои сообщения
    Вы не можете удалять свои сообщения
    Вы не можете голосовать в опросах
    Вы не можете прикреплять файлы к сообщениям
    Вы не можете скачивать файлы