BitTorrentTracker PerecTracker.org
BitTorrentTracker PerecTracker.org
    
Регистрация  ·  Вход
 
 · 
Забыли пароль?

  • Воздушный извозчик (Герберт Раппапорт) [1943, комедия, мелодрама, музыкальный, SATRip]

    Ответить на тему
     
    Автор Сообщение

    Light

    Создавать темы 12-Июл-2015 00:52

           

    [Цитировать]

    Воздушный извозчикГод выпуска: 1943.
    Жанр: комедия, мелодрама, музыкальный.
    Продолжительность: 01:11:03.
    Режиссер: Герберт Раппапорт.
    В ролях:
    Михаил Жаров, Людмила Целиковская, Борис Блинов, Григорий Шпигель, Владимир Грибков, Татьяна Говоркова, Константин Сорокин, Людмила Шабалина, Михаил Кузнецов, Владимир Шишкин.
    Описание:
    Рассказ о жизни советских людей накануне и в первые дни войны.
    Немолодой уже отважный лётчик Баранов влюблён в начинающую певицу Наташу Куликову. Её родители против этого брака, а влюбленные уверены, что могут быть счастливы. Но война нарушает их планы. Баранова направляют на один из тыловых аэродромов...

    Доп. информация:
    Страна: СССР .
    Киностудия: ЦОКС (Алма-Ата).
    Премьера: 28 апреля 1947 года.
    Автор сценария: Евгений Петров.
    Оператор: Александр Гальперин.
    Композитор: Юрий Бирюков.
    Художник: Владимир Егоров.

    Еще постеры

    Релиз
    Рип с этой раздачи.
    Большое спасибо Valeronius за предоставленый материал для рипа!!!

    Качество: SATRip
    Формат: AVI
    Видео: 720x544 (1.32:1), 25 fps, XviD build 73 ~2003 kbps avg, 0.20 bit/pixel
    Аудио: 48 kHz, AC3 Dolby Digital, 2/0 (L,R) ch, ~192 kbps

    Отчет MI

    General
    Complete name : Vozdushnyj.izvozchik.1943.XviD.SATRip.fenixclub_1.09.avi
    Format : AVI
    Format/Info : Audio Video Interleave
    File size : 1.09 GiB
    Duration : 1h 11mn
    Overall bit rate : 2 205 Kbps
    Writing application : VirtualDubMod 1.5.10.3 | www.virtualdub-fr.org || (build 2550/release)
    Writing library : VirtualDubMod build 2550/release
    Video
    ID : 0
    Format : MPEG-4 Visual
    Format profile : Advanced Simple@L5
    Format settings, BVOP : 2
    Format settings, QPel : No
    Format settings, GMC : No warppoints
    Format settings, Matrix : Custom
    Codec ID : XVID
    Codec ID/Hint : XviD
    Duration : 1h 11mn
    Bit rate : 2 003 Kbps
    Width : 720 pixels
    Height : 544 pixels
    Display aspect ratio : 4:3
    Frame rate : 25.000 fps
    Color space : YUV
    Chroma subsampling : 4:2:0
    Bit depth : 8 bits
    Scan type : Progressive
    Compression mode : Lossy
    Bits/(Pixel*Frame) : 0.205
    Stream size : 1 018 MiB (91%)
    Writing library : XviD 73
    Audio
    ID : 1
    Format : AC-3
    Format/Info : Audio Coding 3
    Mode extension : CM (complete main)
    Format settings, Endianness : Big
    Codec ID : 2000
    Duration : 1h 11mn
    Bit rate mode : Constant
    Bit rate : 192 Kbps
    Channel(s) : 2 channels
    Channel positions : Front: L R
    Sampling rate : 48.0 KHz
    Compression mode : Lossy
    Stream size : 97.6 MiB (9%)
    Alignment : Split accross interleaves
    Interleave, duration : 40 ms (1.00 video frame)
    Interleave, preload duratio : 500 ms.
    Скриншоты

    Альтернативный хост

    Скачать .torrent

    Скачать торрент-файл бесплатно и на максимальной скорости!

    Как скачивать? · Что такое торрент? · Рейтинг и ограничения

    !ВНИМАНИЕ!
    Сайт не распространяет и не хранит электронные версии произведений, а занимается лишь лишь предоставлением доступа к создаваемому пользователями каталогу ссылок на торрент-файлы, которые содержат только списки хеш-сумм, убедительная просьба с жалобами обращаться напрямую к пользователю. Файлы для обмена на трекере предоставлены пользователями сайта, и администрация не несёт ответственности за их содержание. Просьба не заливать файлы, защищенные авторскими правами, а также файлы нелегального содержания!


    _________________
    [Профиль] [ЛС]
    Показать сообщения:    
    Ответить на тему

    Текущее время: Сегодня, в 14:56

    Часовой пояс: GMT + 2



    Вы не можете начинать темы
    Вы не можете отвечать на сообщения
    Вы не можете редактировать свои сообщения
    Вы не можете удалять свои сообщения
    Вы не можете голосовать в опросах
    Вы не можете прикреплять файлы к сообщениям
    Вы не можете скачивать файлы