BitTorrentTracker PerecTracker.org
BitTorrentTracker PerecTracker.org
    
Регистрация  ·  Вход
 
 · 
Забыли пароль?

  • Солистка балета (Александр Ивановский) [1946, комедия, мелодрама, музыкальный, DVDRip]

    Ответить на тему
     
    Автор Сообщение

    Light

    Создавать темы 11-Июл-2015 03:53

           

    [Цитировать]

    Солистка балетаГод выпуска: 1946.
    Жанр: комедия, мелодрама, музыкальный.
    Продолжительность: 01:13:08.
    Режиссер: Александр Ивановский.
    В ролях:
    Мира Редина, Виктор Казанович, Ольга Жизнева, Владимир Гардин, Галина Уланова, Владимир Преображенский, Нонна Ястребова, Нина Болдырева, Константин Адашевский, Александр Орлов, Фёдор Курихин.
    Описание:
    Наташа Субботина, заканчивая хореографическое училище, готовит партию Авроры в балете П. Чайковского "Спящая красавица". Юная балерина не хочет повторять найденный когда-то Мариусом Петипа рисунок танца и стремится внести в него свежие краски. Нелегко найдёт она новое решение. Не сразу сложатся у Наташи и отношения с влюблённым в неё студентом Консерватории Алексеем. В фильме использованы фрагменты из балета П. Чайковского "Лебединое озеро" с участием Галины Улановой.
    Доп. информация:
    Страна: СССР .
    Киностудия: Ленфильм.
    Премьера: 28 апреля 1947 года.
    Авторы сценария: Александр Ивановский, Арон Эрлих.
    Оператор: Аркадий Кольцатый.
    Композитор: Венедикт Пушков.
    Художник: Исаак Махлис.

    Еще постеры

    Релиз
    Рип с этой раздачи.
    Большое спасибо tbonny за предоставленый DVD для рипа!!!

    Качество: DVDRip
    Формат: AVI
    Видео: 688x528 (1.30:1), 25 fps, XviD build 73 ~2381 kbps avg, 0.26 bit/pixel
    Аудио: 48 kHz, AC3 Dolby Digital, 2/0 (L,R) ch, ~256 kbps

    Отчет MI

    General
    Complete name : Solistka.baleta.1946.XviD.DVDRip.fenixclub_ 1,35.avi
    Format : AVI
    Format/Info : Audio Video Interleave
    File size : 1.35 GiB
    Duration : 1h 13mn
    Overall bit rate : 2 648 Kbps
    Writing application : VirtualDubModRus 1.5.10.2 (build 2542/release)
    Writing library : VirtualDubMod build 2542/release
    Video
    ID : 0
    Format : MPEG-4 Visual
    Format profile : Advanced Simple@L5
    Format settings, BVOP : 2
    Format settings, QPel : No
    Format settings, GMC : No warppoints
    Format settings, Matrix : Custom
    Codec ID : XVID
    Codec ID/Hint : XviD
    Duration : 1h 13mn
    Bit rate : 2 382 Kbps
    Width : 688 pixels
    Height : 528 pixels
    Display aspect ratio : 4:3
    Frame rate : 25.000 fps
    Color space : YUV
    Chroma subsampling : 4:2:0
    Bit depth : 8 bits
    Scan type : Progressive
    Compression mode : Lossy
    Bits/(Pixel*Frame) : 0.262
    Stream size : 1.22 GiB (90%)
    Writing library : XviD 73
    Audio
    ID : 1
    Format : AC-3
    Format/Info : Audio Coding 3
    Mode extension : CM (complete main)
    Format settings, Endianness : Big
    Codec ID : 2000
    Duration : 1h 13mn
    Bit rate mode : Constant
    Bit rate : 256 Kbps
    Channel(s) : 2 channels
    Channel positions : Front: L R
    Sampling rate : 48.0 KHz
    Compression mode : Lossy
    Delay relative to video : 8ms
    Stream size : 134 MiB (10%)
    Alignment : Split accross interleaves
    Interleave, duration : 40 ms (1.00 video frame)
    Interleave, preload duratio : 500 ms.
    Скриншоты

    Альтернативный хост


    Скачать .torrent

    Скачать торрент-файл бесплатно и на максимальной скорости!

    Как скачивать? · Что такое торрент? · Рейтинг и ограничения

    !ВНИМАНИЕ!
    Сайт не распространяет и не хранит электронные версии произведений, а занимается лишь лишь предоставлением доступа к создаваемому пользователями каталогу ссылок на торрент-файлы, которые содержат только списки хеш-сумм, убедительная просьба с жалобами обращаться напрямую к пользователю. Файлы для обмена на трекере предоставлены пользователями сайта, и администрация не несёт ответственности за их содержание. Просьба не заливать файлы, защищенные авторскими правами, а также файлы нелегального содержания!


    _________________
    [Профиль] [ЛС]
    Показать сообщения:    
    Ответить на тему

    Текущее время: Сегодня, в 16:20

    Часовой пояс: GMT + 2



    Вы не можете начинать темы
    Вы не можете отвечать на сообщения
    Вы не можете редактировать свои сообщения
    Вы не можете удалять свои сообщения
    Вы не можете голосовать в опросах
    Вы не можете прикреплять файлы к сообщениям
    Вы не можете скачивать файлы