BitTorrentTracker PerecTracker.org
BitTorrentTracker PerecTracker.org
    
Регистрация  ·  Вход
 
 · 
Забыли пароль?

  • Женщина в золотом / Woman in Gold (Саймон Кертис / Simon Curtis) [2015, США, Великобритания, драма, DVDRip] sub Rus (Janetta) + Original Eng

    Ответить на тему
     
    Автор Сообщение

    rechyn

    Создавать темы 10-Июл-2015 23:41

           

    [Цитировать]

    Женщина в золотом / Woman in Gold
    Страна: США, Великобритания
    Жанр: драма
    Год выпуска: 2015
    Продолжительность: 01:49:18
    Перевод:Cубтитры (Janetta)
    Cубтитры: Русские (вшитые)
    Оригинальная аудиодорожка: английский
    Режиссер: Саймон Кертис / Simon Curtis
    В ролях: Хелен Миррен, Райан Рейнольдс, Даниэль Брюль, Кэти Холмс, Татьяна Маслани,
    Макс Айронс, Чарльз Дэнс, Элизабет МакГоверн, Джонатан Прайс, Антье Трауэ
    Описание: История Марии Альтман, которая пытается добиться справедливости — вернуть ценности, отобранные у ее семьи нацистами несколько десятилетий назад. Среди культурного достояния женщины известная картина Густава Климта «Портрет Адели Блох-Бауэр», которую иногда называют «Золотая Адель». Вместе с неопытным, но отважным молодым адвокатом, женщина пытается доказать свои права на наследие предков.
    Доп. информация: 7.4
    8.0
    Сэмпл: http://sendfile.su/1136109
    Качество видео: DVDRip
    Формат видео: AVI
    Видео: XviD, 720x304, 1360 Кбит/с, 23.976 fps
    Аудио: AC3 , 6 ch, 448 Кбит/с, 48.0 KHz

    MediaInfo

    General
    Complete name : F:\Woman.in.Gold.2015.avi
    Format : AVI
    Format/Info : Audio Video Interleave
    File size : 1.39 GiB
    Duration : 1h 49mn
    Overall bit rate : 1 816 Kbps
    Writing application : VirtualDubMod 1.5.10.2 (build 2542/release)
    Writing library : VirtualDubMod build 2542/release
    Video
    ID : 0
    Format : MPEG-4 Visual
    Format profile : Advanced Simple@L5
    Format settings, BVOP : 1
    Format settings, QPel : No
    Format settings, GMC : No warppoints
    Format settings, Matrix : Default (H.263)
    Muxing mode : Packed bitstream
    Codec ID : XVID
    Codec ID/Hint : XviD
    Duration : 1h 49mn
    Bit rate : 1 360 Kbps
    Width : 720 pixels
    Height : 304 pixels
    Display aspect ratio : 2.35:1
    Frame rate : 23.976 fps
    Color space : YUV
    Chroma subsampling : 4:2:0
    Bit depth : 8 bits
    Scan type : Progressive
    Compression mode : Lossy
    Bits/(Pixel*Frame) : 0.259
    Stream size : 1.04 GiB (75%)
    Writing library : XviD 64
    Audio
    ID : 1
    Format : AC-3
    Format/Info : Audio Coding 3
    Mode extension : CM (complete main)
    Format settings, Endianness : Big
    Codec ID : 2000
    Duration : 1h 49mn
    Bit rate mode : Constant
    Bit rate : 448 Kbps
    Channel(s) : 6 channels
    Channel positions : Front: L C R, Side: L R, LFE
    Sampling rate : 48.0 KHz
    Compression mode : Lossy
    Stream size : 350 MiB (25%)
    Alignment : Split accross interleaves
    Interleave, duration : 64 ms (1.53 video frames)
    Interleave, preload duration : 500 ms

    Скриншот c названием фильма

    Скриншоты











    Скачать .torrent

    Скачать торрент-файл бесплатно и на максимальной скорости!

    Как скачивать? · Что такое торрент? · Рейтинг и ограничения

    !ВНИМАНИЕ!
    Сайт не распространяет и не хранит электронные версии произведений, а занимается лишь лишь предоставлением доступа к создаваемому пользователями каталогу ссылок на торрент-файлы, которые содержат только списки хеш-сумм, убедительная просьба с жалобами обращаться напрямую к пользователю. Файлы для обмена на трекере предоставлены пользователями сайта, и администрация не несёт ответственности за их содержание. Просьба не заливать файлы, защищенные авторскими правами, а также файлы нелегального содержания!


    _________________
    [Профиль] [ЛС]
    Показать сообщения:    
    Ответить на тему

    Текущее время: Сегодня, в 07:59

    Часовой пояс: GMT + 2



    Вы не можете начинать темы
    Вы не можете отвечать на сообщения
    Вы не можете редактировать свои сообщения
    Вы не можете удалять свои сообщения
    Вы не можете голосовать в опросах
    Вы не можете прикреплять файлы к сообщениям
    Вы не можете скачивать файлы