BitTorrentTracker PerecTracker.org
BitTorrentTracker PerecTracker.org
    
Регистрация  ·  Вход
 
 · 
Забыли пароль?

  • Номер 44 / Малыш 44 / Child 44 (Даниэль Эспиноса / Daniel Espinosa) [2015, США, Великобритания, Чехия, Румыния, триллер, драма, WEB-DL 1080p] Dub (iTunes)

    Ответить на тему
     
    Автор Сообщение

    Flirldrerve

    Создавать темы 10-Июл-2015 23:41

           

    [Цитировать]

    Номер 44 / Child 44Страна: США, Великобритания, Чехия, Румыния
    Жанр: триллер, драма
    Год выпуска: 2015
    Продолжительность: 02:11:30
    Перевод: Профессиональный (дублированный) iTunes
    Cубтитры: нет
    Оригинальная аудиодорожка: нет
    Режиссер: Даниэль Эспиноса / Daniel Espinosa
    В ролях: Том Харди, Гари Олдман, Нуми Рапас, Юэль Киннаман, Пэдди Консидайн, Джейсон Кларк, Венсан Кассель
    Описание: Действие фильма развернется в СССР времен Иосифа Сталина. Главный герой — дискредитированный офицер советской разведки Лев Демидов. Он расследует серию детских убийств, но его деятельность вызывает подозрение у параноидального советского правительства.
    Сэмпл: http://multi-up.com/1057929

    Тип релиза: WEB-DL 1080p
    Контейнер: MKV
    Видео: MPEG4 Video (H264) 1920x1080 25fps
    Аудио: Dolby AC3 48000Hz 6ch 384kbps

    MediaInfo

    General
    Unique ID : 170920458784571014776526369524577799332 (0x8096153D66C1F8D992939DE3E3ED0CA4)
    Complete name : \Child.44.2015.mkv
    Format : Matroska
    Format version : Version 4 / Version 2
    File size : 5.23 GiB
    Duration : 2h 11mn
    Overall bit rate : 5 697 Kbps
    Encoded date : UTC 2015-07-09 18:40:14
    Writing application : mkvmerge v6.9.1 ('Blue Panther') 64bit built on Apr 18 2014 18:23:38
    Writing library : libebml v1.3.0 + libmatroska v1.4.1
    Video
    ID : 1
    Format : AVC
    Format/Info : Advanced Video Codec
    Format profile : High@L4.0
    Format settings, CABAC : Yes
    Format settings, ReFrames : 4 frames
    Codec ID : V_MPEG4/ISO/AVC
    Duration : 2h 11mn
    Bit rate : 5 200 Kbps
    Width : 1 920 pixels
    Height : 1 080 pixels
    Display aspect ratio : 16:9
    Frame rate mode : Constant
    Frame rate : 25.000 fps
    Color space : YUV
    Chroma subsampling : 4:2:0
    Bit depth : 8 bits
    Scan type : Progressive
    Bits/(Pixel*Frame) : 0.100
    Stream size : 4.78 GiB (91%)
    Language : English
    Default : Yes
    Forced : No
    Color primaries : BT.709
    Transfer characteristics : BT.709
    Matrix coefficients : BT.709
    Color range : Limited
    Audio
    ID : 2
    Format : AC-3
    Format/Info : Audio Coding 3
    Mode extension : CM (complete main)
    Format settings, Endianness : Big
    Codec ID : A_AC3
    Duration : 2h 11mn
    Bit rate mode : Constant
    Bit rate : 384 Kbps
    Channel(s) : 6 channels
    Channel positions : Front: L C R, Side: L R, LFE
    Sampling rate : 48.0 KHz
    Bit depth : 16 bits
    Compression mode : Lossy
    Stream size : 361 MiB (7%)
    Language : Russian
    Default : Yes
    Forced : No
    Menu
    00:00:00.000 : en:Глава 1
    00:06:15.000 : en:Глава 2
    00:11:42.000 : en:Глава 3
    00:16:35.000 : en:Глава 4
    00:21:52.000 : en:Глава 5
    00:27:30.000 : en:Глава 6
    00:31:55.000 : en:Глава 7
    00:36:46.000 : en:Глава 8
    00:41:53.000 : en:Глава 9
    00:47:34.000 : en:Глава 10
    00:51:57.000 : en:Глава 11
    00:56:55.000 : en:Глава 12
    01:01:17.000 : en:Глава 13
    01:04:58.000 : en:Глава 14
    01:10:01.000 : en:Глава 15
    01:14:22.000 : en:Глава 16
    01:19:13.000 : en:Глава 17
    01:24:34.000 : en:Глава 18
    01:30:27.000 : en:Глава 19
    01:35:56.000 : en:Глава 20
    01:42:47.000 : en:Глава 21
    01:48:37.000 : en:Глава 22
    01:57:18.000 : en:Глава 23

    Скриншоты

    Скачать .torrent

    Скачать торрент-файл бесплатно и на максимальной скорости!

    Как скачивать? · Что такое торрент? · Рейтинг и ограничения

    !ВНИМАНИЕ!
    Сайт не распространяет и не хранит электронные версии произведений, а занимается лишь лишь предоставлением доступа к создаваемому пользователями каталогу ссылок на торрент-файлы, которые содержат только списки хеш-сумм, убедительная просьба с жалобами обращаться напрямую к пользователю. Файлы для обмена на трекере предоставлены пользователями сайта, и администрация не несёт ответственности за их содержание. Просьба не заливать файлы, защищенные авторскими правами, а также файлы нелегального содержания!


    _________________
    [Профиль] [ЛС]
    Показать сообщения:    
    Ответить на тему

    Текущее время: Сегодня, в 20:19

    Часовой пояс: GMT + 2



    Вы не можете начинать темы
    Вы не можете отвечать на сообщения
    Вы не можете редактировать свои сообщения
    Вы не можете удалять свои сообщения
    Вы не можете голосовать в опросах
    Вы не можете прикреплять файлы к сообщениям
    Вы не можете скачивать файлы