BitTorrentTracker PerecTracker.org
BitTorrentTracker PerecTracker.org
    
Регистрация  ·  Вход
 
 · 
Забыли пароль?

  • Возвращение (Михаил Терещенко) [1960, драма, DVB]

    Ответить на тему
     
    Автор Сообщение

    Light

    Создавать темы 10-Июл-2015 11:05

           

    [Цитировать]

    Возвращение
    Жанр: драма
    Год выпуска: 1960
    Продолжительность: 1:18:05
    Режиссёр: Михаил Терещенко
    В ролях: Генрих Осташевский, Н. Богомолова, Василий Векшин, Людмила Татьянчук, Александр Гай, Всеволод Якут, Яков Павлов, Пётр Вишняков, Семён Кошачевский, В. Бидяк
    Описание: Стефан Суббота, эмигрировав в Америку, пятнадцать лет скитался в поисках заработков. Накопив денег, герой обзавёлся небольшой фермой и с приходом весны приехал в родное село на Украину, где все эти годы ждала его Христина. Многое изменилось в жизни Закарпатья - и как ни любила его Христина, а ехать с ним отказалась. Стефан, решив провести в родных краях лето, устроился на временную работу, перестал сокрушаться по брошенной ферме - и, в конце концов, остался здесь навсегда.
    Семпл: http://sendfile.su/1135904
    Качество видео: DVB
    Формат видео: MPEG-PS
    Видео: MPEG2 Video 720x576 (4:3) 25,000 кадров/сек 3275 Кбит/сек (15,0 Мбит/сек)
    Аудио: Русский MPEG Audio 48,0 КГц 2 канала 192 Кбит/сек

    MediaInfo

    Общее
    Полное имя : E:\Torrents\СВОИ\Возвращение (1960).mpg
    Формат : MPEG-PS
    Размер файла : 1,93 Гбайт
    Продолжительность : 1 ч. 18 м.
    Режим общего битрейта : Переменный
    Общий поток : 3538 Кбит/сек
    Библиотека кодирования : (c) 1998-2010 Womble Multimedia, Inc. / MPEG Video Wizard DVD 5.0.0.114 (01/2010) / Jul 5 2010
    Видео
    Идентификатор : 224 (0xE0)
    Формат : MPEG Video
    Версия формата : Version 2
    Профиль формата : Main@Main
    Параметр BVOP формата : Да
    Параметр матрицы формата : Выборочная
    Параметр GOP формата : Variable
    Format_Settings_PictureStructure : Frame
    Продолжительность : 1 ч. 18 м.
    Вид битрейта : Переменный
    Битрейт : 3275 Кбит/сек
    Максимальный битрейт : 15,0 Мбит/сек
    Ширина : 720 пикселей
    Высота : 576 пикселей
    Соотношение сторон : 4:3
    Частота кадров : 25,000 кадров/сек
    Стандарт вещания : PAL
    Цветовое пространство : YUV
    Субдискретизация насыщенности : 4:2:0
    Битовая глубина : 8 бит
    Тип развёртки : Чересстрочная
    Порядок развёртки : Верхнее поле первое
    Метод сжатия : С потерями
    Бит/(Пиксели*Кадры) : 0.316
    Временной код первого кадра : 00:00:00:00
    Оригинал временного кода : Group of pictures header
    Размер потока : 1,79 Гбайт (93%)
    Библиотека кодирования : (c) 1998-2010 Womble Multimedia, Inc. / MPEG Video Wizard DVD 5.0.0.114 (01/2010) / Jul 5 2010
    Аудио
    Идентификатор : 192 (0xC0)
    Формат : MPEG Audio
    Версия формата : Version 1
    Профиль формата : Layer 2
    Продолжительность : 1 ч. 18 м.
    Вид битрейта : Постоянный
    Битрейт : 192 Кбит/сек
    Каналы : 2 канала
    Частота : 48,0 КГц
    Метод сжатия : С потерями
    Задержка видео : -40 мс.
    Размер потока : 107 Мбайт (5%)
    Меню

    Скриншоты


    Скачать .torrent

    Скачать торрент-файл бесплатно и на максимальной скорости!

    Как скачивать? · Что такое торрент? · Рейтинг и ограничения

    !ВНИМАНИЕ!
    Сайт не распространяет и не хранит электронные версии произведений, а занимается лишь лишь предоставлением доступа к создаваемому пользователями каталогу ссылок на торрент-файлы, которые содержат только списки хеш-сумм, убедительная просьба с жалобами обращаться напрямую к пользователю. Файлы для обмена на трекере предоставлены пользователями сайта, и администрация не несёт ответственности за их содержание. Просьба не заливать файлы, защищенные авторскими правами, а также файлы нелегального содержания!


    _________________
    [Профиль] [ЛС]
    Показать сообщения:    
    Ответить на тему

    Текущее время: Сегодня, в 02:44

    Часовой пояс: GMT + 2



    Вы не можете начинать темы
    Вы не можете отвечать на сообщения
    Вы не можете редактировать свои сообщения
    Вы не можете удалять свои сообщения
    Вы не можете голосовать в опросах
    Вы не можете прикреплять файлы к сообщениям
    Вы не можете скачивать файлы