Register  ·  Log in
Forgot password?

  • Сурогатное материнство / Ловушка суррогатного материнства / The Surrogacy Trap (Адриан Уиллс / Adrian Wills) [2013, Канада, Драма, HDTVRip] MVO

    Reply to topic
    Author Message


    Post 10-Jul-2015 12:05



    Сурогатное материнство / Ловушка суррогатного материнства / The Surrogacy Trap
    Страна: Канада
    Жанр: Драма
    Год выпуска: 2013
    Продолжительность: 01:26:44
    Перевод: Профессиональный (многоголосый закадровый)
    Cубтитры: нет
    Режиссер: Адриан Уиллс / Adrian Wills
    В ролях: Миа Киршнер, Дэвид Джулиан Хёрш, Натали Браун, Эмма Кэмпбелл, Рейчел Блэнчард, Луис Деллар, Паула Костэйн, Розмари Дансмор, Милен Робик, Пол Ван Дайк
    Описание: Супруги Кристи и Митч давно мечтают о ребёнке, но у них никак не получается зачать его. Отчаявшись, пара решает прибегнуть к услугам суррогатной матери. Мэллори кажется им подходящей кандидатурой, она дружелюбна и мила, и именно ей супруги решают доверить эту ответственную миссию. Но ситуация выходит из-под контроля, когда они понимают, что Мэллори совсем не та, кем казалась им раньше…
    Доп. информация: За исходник спасибо Romanok8691
    Качество видео: HDTVRip [Исходник 1080i]
    Формат видео: AVI
    Видео: 720x400 (1.80:1), 25 fps, XviD build 50 ~2054 kbps avg, 0.28 bit/pixel
    Аудио: 48 kHz, AC3 Dolby Digital, 2/0 (L,R) ch, ~192 kbps


    Ловушка суррогатного материнства - The Surrogacy Trap [by Edich2].avi
    Format : AVI
    Format/Info : Audio Video Interleave
    File size : 1.37 GiB
    Duration : 1h 26mn
    Overall bit rate : 2 256 Kbps
    Movie name : Ловушка суррогатного материнства - The Surrogacy Trap [by Edich2]
    Director : by Edich2
    Writing application : VirtualDubMod | || (build 2550/release)
    Comment :
    ID : 0
    Format : MPEG-4 Visual
    Format profile : Advanced Simple@L5
    Format settings, BVOP : 1
    Format settings, QPel : No
    Format settings, GMC : No warppoints
    Format settings, Matrix : Default (MPEG)
    Codec ID : XVID
    Codec ID/Hint : XviD
    Duration : 1h 26mn
    Bit rate : 2 055 Kbps
    Width : 720 pixels
    Height : 400 pixels
    Display aspect ratio : 16:9
    Frame rate : 25.000 fps
    Color space : YUV
    Chroma subsampling : 4:2:0
    Bit depth : 8 bits
    Scan type : Progressive
    Compression mode : Lossy
    Bits/(Pixel*Frame) : 0.285
    Stream size : 1.25 GiB (91%)
    Writing library : XviD 1.2.1 (UTC 2008-12-04)
    ID : 1
    Format : AC-3
    Format/Info : Audio Coding 3
    Mode extension : CM (complete main)
    Format settings, Endianness : Big
    Codec ID : 2000
    Duration : 1h 26mn
    Bit rate mode : Constant
    Bit rate : 192 Kbps
    Channel(s) : 2 channels
    Channel positions : Front: L R
    Sampling rate : 48.0 KHz
    Bit depth : 16 bits
    Compression mode : Lossy
    Stream size : 119 MiB (9%)
    Alignment : Split accross interleaves
    Interleave, duration : 40 ms (1.00 video frame)
    Interleave, preload duration : 500 ms


    Download .torrent

    Download free and at maximum speed!

    How to Download? · What is a torrent? · Ratings and Limitations

    The site does not extend and does not store electronic(digital) versions of products, and only gives access to a reference catalogue created by users on torrent-files which contain only lists of the hash-sums, the earnest entreaty, with complaints(abuse) to access directly to the user. Files for an exchange on tracker are given by users of a site, and the administration does not bear the responsibility for their maintenance. The request to not fill in the files protected by copyrights, and also files of the illegal maintenance!

    [Profile] [PM]
    Display posts from previous:    
    Reply to topic

    The time now is: Today 06:34

    All times are GMT + 3 Hours

    You cannot post new topics in this forum
    You cannot reply to topics in this forum
    You cannot edit your posts in this forum
    You cannot delete your posts in this forum
    You cannot vote in polls in this forum
    You cannot attach files in this forum
    You cannot download files in this forum