Register  ·  Log in
Forgot password?

  • Зловредная / Pernicious (Джеймс Каллен Брэссак / James Cullen Bressack) [2014, США, Таиланд, Ужасы, триллер, WEB-DLRip] VO (datynet по переводу Куценко)

    Reply to topic
    Author Message


    Post 09-Jul-2015 10:53



    Зловредная / Pernicious
    Страна: США, Таиланд
    Жанр: Ужасы, триллер
    Год выпуска: 2014
    Продолжительность: 01:32:27
    Перевод: Одноголосый закадровый datynet по переводу Куценко
    Cубтитры: нет
    Оригинальная аудиодорожка: нет
    Режиссер: Джеймс Каллен Брэссак / James Cullen Bressack
    В ролях: Сиара Ханна, Эмили О’Брайэн, Джеки Мур, Расселл Джеффри Бэнкс, Байрон Гибсон, Джек Принья, Sohanne Bengana, Джаред Кон, Сара Малакул Лэйн, Wallop Terathong
    Описание: Это должно было быть обычное приключение в их жизни , как три молодые девушки проводили лето в Таиланде. Но их приключение быстро становится кошмаром , когда трио раскрывает дух убитого ребенка, у которого только одно на уме - месть.
    Доп. информация:

    Качество видео: WEB-DLRip
    Формат видео: AVI
    Видео: XVID, 1 915 kb/s, 720x400, 23.976 fps
    Аудио: Russian : AC3, 192 kb/s (2 ch), 48.0 KHz


    Complete name : Pernicious.2015.L1.WEBDLRip.1400MB.avi
    Format : AVI
    Format/Info : Audio Video Interleave
    File size : 1.37 GiB
    Duration : 1h 32mn
    Overall bit rate : 2 116 Kbps
    Writing application : VirtualDubMod (build 2540/release)
    Writing library : VirtualDubMod build 2540/release
    ID : 0
    Format : MPEG-4 Visual
    Format profile : Advanced Simple@L5
    Format settings, BVOP : 2
    Format settings, QPel : No
    Format settings, GMC : No warppoints
    Format settings, Matrix : Default (MPEG)
    Codec ID : XVID
    Codec ID/Hint : XviD
    Duration : 1h 32mn
    Bit rate : 1 915 Kbps
    Width : 720 pixels
    Height : 400 pixels
    Display aspect ratio : 16:9
    Frame rate : 23.976 fps
    Color space : YUV
    Chroma subsampling : 4:2:0
    Bit depth : 8 bits
    Scan type : Progressive
    Compression mode : Lossy
    Bits/(Pixel*Frame) : 0.277
    Stream size : 1.24 GiB (90%)
    Writing library : XviD 1.2.1 (UTC 2008-12-04)
    ID : 1
    Format : AC-3
    Format/Info : Audio Coding 3
    Mode extension : CM (complete main)
    Codec ID : 2000
    Duration : 1h 32mn
    Bit rate mode : Constant
    Bit rate : 192 Kbps
    Channel(s) : 2 channels
    Channel positions : Front: L R
    Sampling rate : 48.0 KHz
    Bit depth : 16 bits
    Compression mode : Lossy
    Stream size : 127 MiB (9%)
    Alignment : Split accross interleaves
    Interleave, duration : 42 ms (1.00 video frame)
    Interleave, preload duration : 500 ms

    Скриншот c названием фильма


    Download .torrent

    Download free and at maximum speed!

    How to Download? · What is a torrent? · Ratings and Limitations

    The site does not extend and does not store electronic(digital) versions of products, and only gives access to a reference catalogue created by users on torrent-files which contain only lists of the hash-sums, the earnest entreaty, with complaints(abuse) to access directly to the user. Files for an exchange on tracker are given by users of a site, and the administration does not bear the responsibility for their maintenance. The request to not fill in the files protected by copyrights, and also files of the illegal maintenance!

    [Profile] [PM]
    Display posts from previous:    
    Reply to topic

    The time now is: Today 15:12

    All times are GMT + 3 Hours

    You cannot post new topics in this forum
    You cannot reply to topics in this forum
    You cannot edit your posts in this forum
    You cannot delete your posts in this forum
    You cannot vote in polls in this forum
    You cannot attach files in this forum
    You cannot download files in this forum