BitTorrentTracker PerecTracker.org
BitTorrentTracker PerecTracker.org
    
Регистрация  ·  Вход
 
 · 
Забыли пароль?

  • Камилла Клодель, 1915 / Camille Claudel 1915 (Брюно Дюмон / Bruno Dumont) [2013 г., Франция, драма, биография, BDRip-AVC] MVO + FRE + SUB (rus, eng, fre)

    Ответить на тему
     
    Автор Сообщение

    Light

    Создавать темы 08-Июл-2015 21:17

           

    [Цитировать]

    Камилла Клодель, 1915 / Camille Claudel 1915
    -
    Страна: Франция
    Жанр: драма, биография
    Год выпуска: 2013
    Продолжительность: 01:34:53-Перевод: Профессиональный (Многоголосый закадровый) | Вольга
    Cубтитры: русские, английские, франзузские-Режиссер: Брюно Дюмон / Bruno Dumont
    В ролях: Жюльет Бинош, Жан-Люк Винсент, Роберт Лерой, ,Мэрион Келлер
    Описание: История о французском скульпторе Камилле Клодель, чья одержимость мыслью, что её завистники — так же, как и её бывший любовник Огюст Роден, — преследуют её, побудило семью Камиллы отправить её в психиатрическую клинику на юге Франции. В фильме показаны бесконечные бдения героини в надежде найти понимание и признание её таланта, а также ожидание визита любимого брата, писателя Поля Клоделя.-Качество видео: BDRip-AVC [BDRemux 1080p HDCLub]
    Формат видео: MKV-Видео: х.264, 1080x450 (2.35:1), 23.976 fps, ~2805 Кbps, 0.241 bit/pixel
    Аудио 1: AC3 384 Кбит/сек (6 ch), 48,0 КГц, 16 бит | MVO
    Аудио 2: AC3 448 Кбит/сек (6 ch), 48,0 КГц, 16 бит | FRE
    Формат субтитров: SoftSub (SRT)
    --
    -
    -

    MediaInfo & log x264

    log x264

    x264 [info]: using SAR=50/51
    x264 [info]: using cpu capabilities: MMX2 SSE2Fast SSSE3 SSE4.2
    x264 [info]: profile High, level 4.1
    x264 [info]: frame I:673 Avg QP:15.32 size:127662
    x264 [info]: frame P:23259 Avg QP:18.23 size: 43647
    x264 [info]: frame B:112554 Avg QP:21.93 size: 7946
    x264 [info]: consecutive B-frames: 0.9% 1.1% 2.2% 8.7% 13.0% 36.9% 12.1% 12.2% 4.1% 1.8% 1.5% 3.0% 1.4% 0.6% 0.3%
    x264 [info]: mb I I16..4: 6.3% 61.0% 32.7%
    x264 [info]: mb P I16..4: 0.1% 3.5% 1.2% P16..4: 31.2% 38.2% 18.9% 0.0% 0.0% skip: 6.8%
    x264 [info]: mb B I16..4: 0.0% 0.4% 0.1% B16..8: 33.4% 17.1% 4.3% direct: 4.8% skip:39.8% L0:48.1% L1:41.1% BI:10.7%
    x264 [info]: 8x8 transform intra:69.1% inter:54.9%
    x264 [info]: direct mvs spatial:98.4% temporal:1.6%
    x264 [info]: coded y,uvDC,uvAC intra: 85.4% 87.4% 69.5% inter: 24.7% 14.8% 5.1%
    x264 [info]: i16 v,h,dc,p: 42% 17% 9% 32%
    x264 [info]: i8 v,h,dc,ddl,ddr,vr,hd,vl,hu: 16% 8% 11% 9% 12% 12% 11% 11% 11%
    x264 [info]: i4 v,h,dc,ddl,ddr,vr,hd,vl,hu: 40% 6% 8% 6% 8% 8% 7% 8% 8%
    x264 [info]: i8c dc,h,v,p: 41% 20% 24% 16%
    x264 [info]: Weighted P-Frames: Y:2.1% UV:0.5%
    x264 [info]: ref P L0: 33.4% 8.5% 21.0% 7.2% 8.6% 5.1% 6.5% 2.9% 4.0% 2.8% 0.1% 0.0%
    x264 [info]: ref B L0: 56.1% 15.8% 9.0% 5.6% 4.2% 4.1% 3.3% 1.4% 0.5%
    x264 [info]: ref B L1: 89.5% 10.5%
    x264 [info]: kb/s:2804.33
    General
    Unique ID                   : 215455929150389881597293164832738520465 (0xA2174D74E0813BDC8411EBD309D82D91)
    Complete name               : D:\Сеть\Camille.Claudel.1915.(2013)_R.G.All_Films.mkv
    Format                      : Matroska
    Format version              : Version 4 / Version 2
    File size                   : 2.18 GiB
    Duration                    : 1h 34mn
    Overall bit rate            : 3 286 Kbps
    Encoded date                : UTC 2015-05-13 08:19:37
    Writing application         : mkvmerge v7.9.0 ('Birds') 64bit
    Writing library             : libebml v1.3.1 + libmatroska v1.4.2
    DURATION                    : 01:34:52.160000000
    NUMBER_OF_FRAMES            : 177880
    NUMBER_OF_BYTES             : 273223680
    _STATISTICS_WRITING_APP     : mkvmerge v7.9.0 ('Birds') 64bit
    _STATISTICS_WRITING_DATE_UT : 2015-05-13 08:19:37
    _STATISTICS_TAGS            : BPS DURATION NUMBER_OF_FRAMES NUMBER_OF_BYTES
    Video
    ID                          : 1
    Format                      : AVC
    Format/Info                 : Advanced Video Codec
    Format profile              : High@L4.1
    Format settings, CABAC      : Yes
    Format settings, ReFrames   : 10 frames
    Codec ID                    : V_MPEG4/ISO/AVC
    Duration                    : 1h 34mn
    Bit rate                    : 2 805 Kbps
    Width                       : 1 080 pixels
    Height                      : 450 pixels
    Display aspect ratio        : 2.35:1
    Frame rate mode             : Constant
    Frame rate                  : 23.976 fps
    Color space                 : YUV
    Chroma subsampling          : 4:2:0
    Bit depth                   : 8 bits
    Scan type                   : Progressive
    Bits/(Pixel*Frame)          : 0.241
    Stream size                 : 1.82 GiB (83%)
    Writing library             : x264 core 146 r2538 121396c
    Encoding settings           : cabac=1 / ref=10 / deblock=1:-2:-1 / analyse=0x3:0x113 / me=umh / subme=11 / psy=1 / psy_rd=1.00:0.00 / mixed_ref=1 / me_range=48 / chroma_me=1 / trellis=2 / 8x8dct=1 / cqm=0 / deadzone=21,11 / fast_pskip=0 / chroma_qp_offset=-2 / threads=6 / lookahead_threads=1 / sliced_threads=0 / nr=0 / decimate=1 / interlaced=0 / bluray_compat=0 / constrained_intra=0 / bframes=14 / b_pyramid=2 / b_adapt=2 / b_bias=0 / direct=3 / weightb=1 / open_gop=0 / weightp=2 / keyint=240 / keyint_min=23 / scenecut=40 / intra_refresh=0 / rc_lookahead=40 / rc=2pass / mbtree=1 / bitrate=2805 / ratetol=1.0 / qcomp=0.60 / qpmin=0 / qpmax=69 / qpstep=4 / cplxblur=20.0 / qblur=0.5 / vbv_maxrate=62500 / vbv_bufsize=78125 / nal_hrd=none / filler=0 / ip_ratio=1.40 / aq=2:1.00
    Default                     : Yes
    Forced                      : No
    Audio #1
    ID                          : 2
    Format                      : AC-3
    Format/Info                 : Audio Coding 3
    Mode extension              : CM (complete main)
    Format settings, Endianness : Big
    Codec ID                    : A_AC3
    Duration                    : 1h 34mn
    Bit rate mode               : Constant
    Bit rate                    : 384 Kbps
    Channel(s)                  : 6 channels
    Channel positions           : Front: L C R, Side: L R, LFE
    Sampling rate               : 48.0 KHz
    Compression mode            : Lossy
    Stream size                 : 261 MiB (12%)
    Language                    : Russian
    Default                     : Yes
    Forced                      : No
    Audio #2
    ID                          : 3
    Format                      : AC-3
    Format/Info                 : Audio Coding 3
    Mode extension              : CM (complete main)
    Format settings, Endianness : Big
    Codec ID                    : A_AC3
    Duration                    : 1h 34mn
    Bit rate mode               : Constant
    Bit rate                    : 96.0 Kbps
    Channel(s)                  : 1 channel
    Channel positions           : Front: C
    Sampling rate               : 48.0 KHz
    Compression mode            : Lossy
    Stream size                 : 65.1 MiB (3%)
    Title                       : Original
    Language                    : French
    Default                     : No
    Forced                      : No
    Text #1
    ID                          : 4
    Format                      : UTF-8
    Codec ID                    : S_TEXT/UTF8
    Codec ID/Info               : UTF-8 Plain Text
    Language                    : Russian
    Default                     : Yes
    Forced                      : No
    Text #2
    ID                          : 5
    Format                      : UTF-8
    Codec ID                    : S_TEXT/UTF8
    Codec ID/Info               : UTF-8 Plain Text
    Language                    : English
    Default                     : No
    Forced                      : No
    Text #3
    ID                          : 6
    Format                      : UTF-8
    Codec ID                    : S_TEXT/UTF8
    Codec ID/Info               : UTF-8 Plain Text
    Language                    : French
    Default                     : No
    Forced                      : No
    Menu
    00:00:00.000                : fr:Chapter 1
    00:08:01.314                : fr:Chapter 2
    00:20:22.596                : fr:Chapter 3
    00:32:36.913                : fr:Chapter 4
    00:41:54.052                : fr:Chapter 5
    00:57:11.052                : fr:Chapter 6
    01:05:21.375                : fr:Chapter 7
    01:16:31.127                : fr:Chapter 8
    01:27:45.301                : fr:Chapter 9
    01:32:13.778                : fr:Chapter 10

    Скриншоты




    Скачать .torrent

    Скачать торрент-файл бесплатно и на максимальной скорости!

    Как скачивать? · Что такое торрент? · Рейтинг и ограничения

    !ВНИМАНИЕ!
    Сайт не распространяет и не хранит электронные версии произведений, а занимается лишь лишь предоставлением доступа к создаваемому пользователями каталогу ссылок на торрент-файлы, которые содержат только списки хеш-сумм, убедительная просьба с жалобами обращаться напрямую к пользователю. Файлы для обмена на трекере предоставлены пользователями сайта, и администрация не несёт ответственности за их содержание. Просьба не заливать файлы, защищенные авторскими правами, а также файлы нелегального содержания!


    _________________
    [Профиль] [ЛС]
    Показать сообщения:    
    Ответить на тему

    Текущее время: Сегодня, в 14:24

    Часовой пояс: GMT + 2



    Вы не можете начинать темы
    Вы не можете отвечать на сообщения
    Вы не можете редактировать свои сообщения
    Вы не можете удалять свои сообщения
    Вы не можете голосовать в опросах
    Вы не можете прикреплять файлы к сообщениям
    Вы не можете скачивать файлы