BitTorrentTracker PerecTracker.org
BitTorrentTracker PerecTracker.org
    
Регистрация  ·  Вход
 
 · 
Забыли пароль?

  • Нападение / Удар / Waar (Билаль Лашари / Bilal Lashari) [2013, Пакистан, Боевик, триллер, драма, HDRip-AVC] DVO

    Ответить на тему
     
    Автор Сообщение

    Light

    Создавать темы 08-Июл-2015 21:17

           

    [Цитировать]

    Нападение (Удар) / Waar
    Страна: Пакистан, MindWorks Media
    Жанр: Боевик, триллер, драма
    Год выпуска: 2013
    Продолжительность: 02:00:55
    Перевод: Любительский (двухголосый закадровый) [den904 и deadsno; перевод Куценко]
    Cубтитры: нет
    Режиссер: Билаль Лашари / Bilal Lashari
    В ролях: Шаан Шахид, Хамза Аббаси, Шамун Аббаси, Аиша Кхан, Миша Шафи, Билаль Лашари, Батин Фаруки
    Описание: Усилия пакистанских сил безопасности в их борьбе против терроризма и из жизни пострадавших силовиков. Отставной офицер возвращается, чтобы спасти Пакистан от крупного теракта.
    Сэмпл: http://multi-up.com/1054451
    Качество видео: HDRip-AVC
    Формат видео: MKV
    Видео: MPEG-4 AVC, 1600 Кбит/с, 850x390
    Аудио: AC3, 2 ch, 192 Кбит/с

    MediaInfo

    Общее
    Уникальный идентификатор : 190314191624168197923862046434565595768 (0x8F2D2E17B25DBD2485D257FBF6D8A278)
    Полное имя : C:\MP3\Нападение.mkv
    Формат : Matroska
    Версия формата : Version 4 / Version 2
    Размер файла : 1,51 Гбайт
    Продолжительность : 2 ч. 0 м.
    Общий поток : 1794 Кбит/сек
    Дата кодирования : UTC 2015-06-19 12:16:00
    Программа кодирования : mkvmerge v7.2.0 ('On Every Street') 64bit built on Sep 13 2014 15:52:10
    Библиотека кодирования : libebml v1.3.0 + libmatroska v1.4.1
    DURATION : 02:00:55.520000000
    NUMBER_OF_FRAMES : 226735
    NUMBER_OF_BYTES : 174132480
    _STATISTICS_WRITING_APP : mkvmerge v7.2.0 ('On Every Street') 64bit built on Sep 13 2014 15:52:10
    _STATISTICS_WRITING_DATE_UTC : 2015-06-19 12:16:00
    _STATISTICS_TAGS : BPS DURATION NUMBER_OF_FRAMES NUMBER_OF_BYTES
    Видео
    Идентификатор : 1
    Формат : AVC
    Формат/Информация : Advanced Video Codec
    Профиль формата : High@L4.1
    Параметр CABAC формата : Да
    Параметр ReFrames формата : 4 кадра
    Идентификатор кодека : V_MPEG4/ISO/AVC
    Продолжительность : 2 ч. 0 м.
    Битрейт : 1600 Кбит/сек
    Ширина : 850 пикселей
    Высота : 390 пикселей
    Соотношение сторон : 2,2:1
    Режим частоты кадров : Постоянный
    Частота кадров : 25,000 кадров/сек
    Цветовое пространство : YUV
    Субдискретизация насыщенности : 4:2:0
    Битовая глубина : 8 бит
    Тип развёртки : Прогрессивная
    Бит/(Пиксели*Кадры) : 0.193
    Размер потока : 1,32 Гбайт (87%)
    Библиотека кодирования : x264 core 142 r2431 ac76440
    Настройки программы : cabac=1 / ref=4 / deblock=1:-1:-1 / analyse=0x3:0x113 / me=hex / subme=9 / psy=1 / psy_rd=1.00:0.00 / mixed_ref=1 / me_range=16 / chroma_me=1 / trellis=2 / 8x8dct=1 / cqm=0 / deadzone=21,11 / fast_pskip=1 / chroma_qp_offset=-2 / threads=12 / lookahead_threads=1 / sliced_threads=0 / nr=0 / decimate=1 / interlaced=0 / bluray_compat=0 / constrained_intra=0 / bframes=3 / b_pyramid=2 / b_adapt=2 / b_bias=0 / direct=3 / weightb=1 / open_gop=0 / weightp=2 / keyint=250 / keyint_min=25 / scenecut=40 / intra_refresh=0 / rc_lookahead=40 / rc=2pass / mbtree=1 / bitrate=1600 / ratetol=1.0 / qcomp=0.60 / qpmin=10 / qpmax=51 / qpstep=4 / cplxblur=20.0 / qblur=0.5 / vbv_maxrate=50000 / vbv_bufsize=50000 / nal_hrd=none / filler=0 / ip_ratio=1.40 / aq=1:1.00
    Default : Да
    Forced : Нет
    Аудио
    Идентификатор : 2
    Формат : AC-3
    Формат/Информация : Audio Coding 3
    Расширение режима : CM (complete main)
    Параметр Endianness формата : Big
    Идентификатор кодека : A_AC3
    Продолжительность : 2 ч. 0 м.
    Вид битрейта : Постоянный
    Битрейт : 192 Кбит/сек
    Каналы : 2 канала
    Расположение каналов : Front: L R
    Частота : 48,0 КГц
    Метод сжатия : С потерями
    Размер потока : 166 Мбайт (11%)
    Default : Да
    Forced : Нет

    Скриншоты



    Скачать .torrent

    Скачать торрент-файл бесплатно и на максимальной скорости!

    Как скачивать? · Что такое торрент? · Рейтинг и ограничения

    !ВНИМАНИЕ!
    Сайт не распространяет и не хранит электронные версии произведений, а занимается лишь лишь предоставлением доступа к создаваемому пользователями каталогу ссылок на торрент-файлы, которые содержат только списки хеш-сумм, убедительная просьба с жалобами обращаться напрямую к пользователю. Файлы для обмена на трекере предоставлены пользователями сайта, и администрация не несёт ответственности за их содержание. Просьба не заливать файлы, защищенные авторскими правами, а также файлы нелегального содержания!


    _________________
    [Профиль] [ЛС]
    Показать сообщения:    
    Ответить на тему

    Текущее время: Сегодня, в 22:04

    Часовой пояс: GMT + 2



    Вы не можете начинать темы
    Вы не можете отвечать на сообщения
    Вы не можете редактировать свои сообщения
    Вы не можете удалять свои сообщения
    Вы не можете голосовать в опросах
    Вы не можете прикреплять файлы к сообщениям
    Вы не можете скачивать файлы