BitTorrentTracker PerecTracker.org
BitTorrentTracker PerecTracker.org
    
Регистрация  ·  Вход
 
 · 
Забыли пароль?

  • Беспокойное хозяйство (Михаил Жаров) [1946, Комедия, DVB, AVC]

    Ответить на тему
     
    Автор Сообщение

    Light

    Создавать темы 08-Июл-2015 08:41

           

    [Цитировать]

    Беспокойное хозяйство
    Жанр: Комедия
    Год выпуска: 1946
    Продолжительность: 01:20:41
    Режиссёр: Михаил Жаров
    В ролях: Михаил Жаров, Людмила Целиковская, Александр Граве, Виталий Доронин, Юрий Любимов, Владимир Балашов, Григорий Светлани, Владимир Уральский, Сергей Филиппов, Е. Велихов
    Описание: Под начальством старшины Семибаба (Жаров снял свой первый фильм) находится очень нелегкое хозяйство - бутафорский аэродром, предназначенный принимать на себя бомбовые удары немцев. В его распоряжение прибывают ограниченно годный рядовой Огурцов (Граве), от лица которого и ведется рассказ (он вел дневник) и ефрейтор Тоня (Целиковская), волшебно поющая чудесные песни.
    Доп. информация: Запись потока *.ts со спутника EUTELSAT 36A/B, 36° в.д., ремукс в *.mpg программой VideoReDo.
    Качество видео: DVB
    Формат видео: MKV
    Видео: AVC, 720(768)x576 (4:3), 25,000 кадров/сек, 2831 Кбит/сек
    Аудио: MPEG Audio, 48,0 КГц, 192 Кбит/сек, 2 канала

    MediaInfo

    Общее
    Уникальный идентификатор : 274406646477647340519021331262937943046 (0xCE70CC389FD270ED5686D5D76542CC06)
    Полное имя : D:\Torrent\БЕСПОКОЙНОЕ ХОЗЯЙСТВО (Москва Доверие).mkv
    Формат : Matroska
    Версия формата : Version 2
    Размер файла : 1,74 Гбайт
    Продолжительность : 1 ч. 20 м.
    Общий поток : 3084 Кбит/сек
    Программа кодирования : Lavf52.64.2
    Библиотека кодирования : Lavf52.64.2
    Видео
    Идентификатор : 1
    Формат : AVC
    Формат/Информация : Advanced Video Codec
    Профиль формата : High@L3.0
    Параметр CABAC формата : Да
    Параметр ReFrames формата : 4 кадра
    Идентификатор кодека : V_MPEG4/ISO/AVC
    Продолжительность : 1 ч. 20 м.
    Битрейт : 2831 Кбит/сек
    Ширина : 720 пикселей
    Высота : 576 пикселей
    Соотношение сторон : 4:3
    Соотношение сторон в оригинале : 4:3
    Режим частоты кадров : Постоянный
    Частота кадров : 25,000 кадров/сек
    Стандарт вещания : Component
    Цветовое пространство : YUV
    Субдискретизация насыщенности : 4:2:0
    Битовая глубина : 8 бит
    Тип развёртки : Чересстрочная
    Порядок развёртки : Верхнее поле первое
    Бит/(Пиксели*Кадры) : 0.273
    Размер потока : 1,60 Гбайт (92%)
    Default : Да
    Forced : Нет
    Основные цвета : BT.601 PAL
    Характеристики трансфера : BT.470 System B, BT.470 System G
    Коэффициенты матрицы : BT.601
    Аудио
    Идентификатор : 2
    Формат : MPEG Audio
    Версия формата : Version 1
    Профиль формата : Layer 2
    Режим : Joint stereo
    Расширение режима : Intensity Stereo + MS Stereo
    Идентификатор кодека : A_MPEG/L2
    Идентификатор кодека/Подсказка : MP2
    Продолжительность : 1 ч. 20 м.
    Вид битрейта : Постоянный
    Битрейт : 192 Кбит/сек
    Каналы : 2 канала
    Частота : 48,0 КГц
    Метод сжатия : С потерями
    Размер потока : 111 Мбайт (6%)
    Язык : Russian
    Default : Да
    Forced : Нет

    Скриншоты

    Скачать .torrent

    Скачать торрент-файл бесплатно и на максимальной скорости!

    Как скачивать? · Что такое торрент? · Рейтинг и ограничения

    !ВНИМАНИЕ!
    Сайт не распространяет и не хранит электронные версии произведений, а занимается лишь лишь предоставлением доступа к создаваемому пользователями каталогу ссылок на торрент-файлы, которые содержат только списки хеш-сумм, убедительная просьба с жалобами обращаться напрямую к пользователю. Файлы для обмена на трекере предоставлены пользователями сайта, и администрация не несёт ответственности за их содержание. Просьба не заливать файлы, защищенные авторскими правами, а также файлы нелегального содержания!


    _________________
    [Профиль] [ЛС]
    Показать сообщения:    
    Ответить на тему

    Текущее время: Сегодня, в 02:04

    Часовой пояс: GMT + 2



    Вы не можете начинать темы
    Вы не можете отвечать на сообщения
    Вы не можете редактировать свои сообщения
    Вы не можете удалять свои сообщения
    Вы не можете голосовать в опросах
    Вы не можете прикреплять файлы к сообщениям
    Вы не можете скачивать файлы