BitTorrentTracker PerecTracker.org
BitTorrentTracker PerecTracker.org
    
Регистрация  ·  Вход
 
 · 
Забыли пароль?

  • [ATV3] В постели с Викторией / Victoria (Жюстин Трие / Justine Triet ) [2016, Франция, Драма, мелодрама, комедия, WEB-DL, HD (1080p)] MVO

    Ответить на тему
     
    Автор Сообщение

    rechyn

    Создавать темы Вчера, в 16:25

           

    [Цитировать]

    В постели с Викторией / Victoria
    -
    -Год выпуска: 2016
    Страна: Франция
    Жанр: Драма, мелодрама, комедия
    Продолжительность: 01:35:59
    Перевод: Многоголосый закадровый (iTunes)
    Оригинальная аудиодорожка: Нет
    Cубтитры: Нет
    Режиссёр: Жюстин Трие
    Сценарий: Thomas Lévy-Lasne, Жюстин Трие
    Продюсер: Emmanuel Chaumet
    Оператор: Саймон Бофил
    Композитор:
    Художник: Оливье Мейдингер, Шарлотта Вайссе
    Монтаж: Лорен Сенешаль
    В ролях: Виржини Эфира, Венсан Лакост, Мельвиль Пупо, Лоран Пуатрено, Лорэ Кэлами, Alice Daquet, Жюли Мулье, Elsa Wolliaston, Софи Фийер, Liv Harari
    Сборы в России: $27 567
    Мировая премьера: 12 мая 2016
    Премьера (РФ): 20 октября 2016, «Capella Film»
    Описание: Виктория пытается начать новую жизнь — взять себя в руки, разобраться с любовниками, больше спать и лучше питаться. Только вот бывший, обратившийся к ней за помощью, не помогает навести порядок. А другой возлюбленный, возомнивший себя популярным писателем, посвящает всю сеть в подробности ее интимной жизни.-Качество исходника: WEB-DL 1080p (HDClub)
    Качество: WEB-DL
    Тип: HD (1080p)
    Контейнер: M4V
    Видео: H.264, 1920x804, 2.40:1, 4 590 Kbps, 24.000 fps
    Аудио 1: Русский/Многоголосый закадровый (iTunes), AAC / 2.0 / 160 Kbps / 48.0 KHz
    Аудио 2: Русский/Многоголосый закадровый (iTunes), AC-3 / 5.1 / 384 Kbps / 48.0 KHz
    -

    iTunes Meta Tags

    Sort Name: В постели с Викторией
    XID: Apple:vendor_id:2016-938515
    contentID: 1175632731
    Screenwriters: Thomas Lévy-Lasne, Жюстин Трие
    Producers: Emmanuel Chaumet
    Director: Жюстин Трие
    Cast: Виржини Эфира, Венсан Лакост, Мельвиль Пупо, Лоран Пуатрено, Лорэ Кэлами, Alice Daquet, Жюли Мулье, Elsa Wolliaston, Софи Фийер, Liv Harari
    Studio: Monkey Boy
    Rating: 136
    Long Description: Виктория пытается начать новую жизнь - взять себя в руки, разобраться с любовниками, больше спать и лучше питаться. Только вот бывший, обратившийся к ней за помощью, не помогает навести порядок. А другой возлюбленный, возомнивший себя популярным писателем, посвящает всю сеть в подробности ее интимной жизни.
    Description: Виктория пытается начать новую жизнь - взять себя в руки, разобраться с любовниками, больше спать и лучше питаться. Только вот бывший, обратившийся к ней за помощью, не помогает навести порядок. А другой возлюбленный, возомнивший себя популярным писателем, посвящает всю сеть в подробности ее интимной жизни.
    Release Date: 2016-05-12T08:00:00Z
    Genre: Драма
    Artist: Жюстин Трие
    Name: В постели с Викторией

    MediaInfo

    General
    Complete name                            : /Users/imac/HandBrake/Victoria.WEB-DL.1080p.m4v
    Format                                   : MPEG-4
    Codec ID                                 : M4V  (M4V /M4A /mp42/isom)
    File size                                : 3.44 GiB
    Duration                                 : 1h 35mn
    Overall bit rate mode                    : Variable
    Overall bit rate                         : 5 136 Kbps
    Movie name                               : В постели с Викторией
    Performer                                : Жюстин Трие
    Director                                 : Жюстин Трие
    Actor                                    : Виржини Эфира / Венсан Лакост / Мельвиль Пупо / Лоран Пуатрено / Лорэ Кэлами / Alice Daquet / Жюли Мулье / Elsa Wolliaston / Софи Фийер / Liv Harari
    Screenplay by                            : Thomas Lévy-Lasne / Жюстин Трие
    Producer                                 : Emmanuel Chaumet
    Production studio                        : Monkey Boy
    Genre                                    : Драма
    ContentType                              : Short Film
    Description                              : Виктория пытается начать новую жизнь - взять себя в руки, разобраться с любовниками, больше спать и лучше питаться. Только вот бывший, обратившийся к ней за помощью, не помогает навести порядок. А другой возлюбленный, возомнивший себя популярным писателем, посвящает всю сеть в подробности ее интимной жизни.
    Recorded date                            : UTC 2016-05-12 08:00:00
    Encoded date                             : UTC 2016-12-01 09:53:46
    Tagged date                              : UTC 2016-12-01 09:54:32
    Cover                                    : Yes
    Rating                                   : None
    Title/Sort                               : В постели с Викторией
    LongDescription                          : Виктория пытается начать новую жизнь - взять себя в руки, разобраться с любовниками, больше спать и лучше питаться. Только вот бывший, обратившийся к ней за помощью, не помогает навести порядок. А другой возлюбленный, возомнивший себя популярным писателем, посвящает всю сеть в подробности ее интимной жизни.
    AppleStoreCatalogID                      : 1175632731
    Vendor                                   : Apple:vendor_id:2016-938515
    ContentRating                            : ru-movie|18+|400|
    Video #1
    ID                                       : 1
    Format                                   : AVC
    Format/Info                              : Advanced Video Codec
    Format profile                           : High@L4
    Format settings, CABAC                   : Yes
    Format settings, ReFrames                : 5 frames
    Codec ID                                 : avc1
    Codec ID/Info                            : Advanced Video Coding
    Duration                                 : 1h 35mn
    Bit rate                                 : 4 590 Kbps
    Width                                    : 1 920 pixels
    Height                                   : 804 pixels
    Display aspect ratio                     : 2.40:1
    Frame rate mode                          : Variable
    Frame rate                               : 24.000 fps
    Minimum frame rate                       : 23.810 fps
    Maximum frame rate                       : 24.390 fps
    Color space                              : YUV
    Chroma subsampling                       : 4:2:0
    Bit depth                                : 8 bits
    Scan type                                : Progressive
    Bits/(Pixel*Frame)                       : 0.124
    Stream size                              : 3.08 GiB (89%)
    Title                                    : Main Program
    Language                                 : French
    Encoded date                             : UTC 2016-12-01 09:53:46
    Tagged date                              : UTC 2016-12-01 09:53:52
    Color range                              : Limited
    Color primaries                          : BT.709
    Transfer characteristics                 : BT.709
    Matrix coefficients                      : BT.709
    Menus                                    : 4,5
    Video #2
    ID                                       : 5
    Format                                   : JPEG
    Codec ID                                 : jpeg
    Duration                                 : 1h 35mn
    Bit rate mode                            : Variable
    Bit rate                                 : 570 bps
    Width                                    : 640 pixels
    Height                                   : 268 pixels
    Display aspect ratio                     : 2.40:1
    Frame rate mode                          : Constant
    Frame rate                               : 0.002 fps
    Color space                              : YUV
    Chroma subsampling                       : 4:2:0
    Bit depth                                : 8 bits
    Compression mode                         : Lossy
    Bits/(Pixel*Frame)                       : 1.662
    Stream size                              : 452 KiB (0%)
    Title                                    : Chapter Images
    Language                                 : French
    Default                                  : No
    Encoded date                             : UTC 2016-12-01 09:53:58
    Tagged date                              : UTC 2016-12-01 09:53:58
    Menu For                                 : 1
    Audio #1
    ID                                       : 2
    Format                                   : AAC
    Format/Info                              : Advanced Audio Codec
    Format profile                           : LC
    Codec ID                                 : 40
    Duration                                 : 1h 35mn
    Bit rate mode                            : Variable
    Bit rate                                 : 155 Kbps
    Maximum bit rate                         : 233 Kbps
    Channel(s)                               : 2 channels
    Channel positions                        : Front: L R
    Sampling rate                            : 48.0 KHz
    Frame rate                               : 46.875 fps (1024 spf)
    Compression mode                         : Lossy
    Stream size                              : 106 MiB (3%)
    Title                                    : Russian Stereo
    Language                                 : Russian
    Default                                  : Yes
    Alternate group                          : 1
    Encoded date                             : UTC 2016-12-01 09:53:46
    Tagged date                              : UTC 2016-12-01 09:53:53
    Fallback From                            : 3
    Audio #2
    ID                                       : 3
    Format                                   : AC-3
    Format/Info                              : Audio Coding 3
    Mode extension                           : CM (complete main)
    Format settings, Endianness              : Big
    Codec ID                                 : ac-3
    Duration                                 : 1h 35mn
    Bit rate mode                            : Constant
    Bit rate                                 : 384 Kbps
    Channel(s)                               : 6 channels
    Channel positions                        : Front: L C R, Side: L R, LFE
    Sampling rate                            : 48.0 KHz
    Frame rate                               : 31.250 fps (1536 spf)
    Bit depth                                : 16 bits
    Compression mode                         : Lossy
    Stream size                              : 264 MiB (7%)
    Title                                    : Russian DD 5.1
    Language                                 : Russian
    Default                                  : Inherited From: 2
    Alternate group                          : 1
    Encoded date                             : UTC 2016-12-01 09:53:46
    Tagged date                              : UTC 2016-12-01 09:53:52
    Fallback To                              : 2
    Menu #1
    00:00:00.000                             : 1
    00:07:01.500                             : 2
    00:13:51.041                             : 3
    00:20:20.999                             : 4
    00:28:25.707                             : 5
    00:36:00.832                             : 6
    00:43:03.373                             : 7
    00:49:58.831                             : 8
    00:56:52.456                             : 9
    01:04:45.956                             : 10
    01:11:28.122                             : 11
    01:18:12.622                             : 12
    01:25:59.580                             : 13
    Menu #2
    ID                                       : 4
    Codec ID                                 : text
    Duration                                 : 1h 35mn
    Language                                 : French
    Encoded date                             : UTC 2016-12-01 09:53:54
    Tagged date                              : UTC 2016-12-01 09:53:54
    Menu For                                 : 1
    00:00:00.000                             : 1
    00:07:01.500                             : 2
    00:13:51.041                             : 3
    00:20:20.999                             : 4
    00:28:25.707                             : 5
    00:36:00.832                             : 6
    00:43:03.373                             : 7
    00:49:58.831                             : 8
    00:56:52.456                             : 9
    01:04:45.956                             : 10
    01:11:28.122                             : 11
    01:18:12.622                             : 12
    01:25:59.580                             : 13
    Bit rate mode                            : VBR

    Скриншоты

    -

    Релиз подготовлен для просмотра на Apple TV, iPad, iPhone, iPod Touch.
    Для просмотра данного релиза на компьютере с ОС Windows рекомендуется использовать VLC media player
    Скачать .torrent

    Скачать торрент-файл бесплатно и на максимальной скорости!

    Как скачивать? · Что такое торрент? · Рейтинг и ограничения

    !ВНИМАНИЕ!
    Сайт не распространяет и не хранит электронные версии произведений, а занимается лишь лишь предоставлением доступа к создаваемому пользователями каталогу ссылок на торрент-файлы, которые содержат только списки хеш-сумм, убедительная просьба с жалобами обращаться напрямую к пользователю. Файлы для обмена на трекере предоставлены пользователями сайта, и администрация не несёт ответственности за их содержание. Просьба не заливать файлы, защищенные авторскими правами, а также файлы нелегального содержания!


    _________________
    [Профиль] [ЛС]
    Показать сообщения:    
    Ответить на тему

    Текущее время: Сегодня, в 20:04

    Часовой пояс: GMT + 2



    Вы не можете начинать темы
    Вы не можете отвечать на сообщения
    Вы не можете редактировать свои сообщения
    Вы не можете удалять свои сообщения
    Вы не можете голосовать в опросах
    Вы не можете прикреплять файлы к сообщениям
    Вы не можете скачивать файлы