BitTorrentTracker PerecTracker.org
BitTorrentTracker PerecTracker.org
    
Регистрация  ·  Вход
 
 · 
Забыли пароль?

  • Они сбежали / He ovat paenneet / They Have Escaped (Дж.-П. Валькеапяя / J.-P. Valkeapaa) [2014, Финляндия, Нидерланды, драма, HDRip-AVC] VO (Старый)

    Ответить на тему
     
    Автор Сообщение

    Light

    Создавать темы 01-Дек-2016 16:25

           

    [Цитировать]

    Они сбежали / He ovat paenneet / They Have Escaped / Русская озвучка
    Страна: Финляндия, Нидерланды
    Студия: Helsinki-Filmi
    Жанр: Драма
    Год выпуска: 2014
    Продолжительность: 01:41:33
    Перевод: Любительский (одноголосый закадровый - "Старый")
    Cубтитры: нет
    Режиссер: Дж.-П. Валькеапяя / J.-P. Valkeapaa
    В ролях: Рооса Сёдерхолм, Теппо Маннер, Яри Пехконен, Сара Пааволайнен, Пелле Хейккиля
    Описание: Парень и девушка встречаются в центре для проблемной молодежи. Парень пришел отрабатывать свои обязательные общественные работы. Девушка — одна из подростков под стражей, она постоянно попадает в неприятности, внутри нее — огонь, а ее жажду к жизни невозможно подавить или контролировать. Парень влюбляется в нее. Он — тихоня и заика. Однако внутри него тоже пылает огонь.
    Сэмпл: http://sendfile.su/1286718
    Тип релиза: HDRip
    Контейнер: MKV
    Видео: AVC, 617 kb/s, 852х456 (16:9), 24.000 FPS
    Аудио: Русский, AAC, 2 channels, 44.1 kHz, 317 kb/s

    MediaInfo

    Format : Matroska
    Format version : Version 4 / Version 2
    File size : 680 MiB
    Duration : 1 h 41 min
    Overall bit rate : 936 kb/s
    Movie name : They.Have.Escaped.2014.720p.BluRay.DD5.1.x264-HiFi
    Encoded date : UTC 2016-12-01 07:43:45
    Writing application : mkvmerge v9.6.0 ('Slave To Your Mind') 64bit
    Writing library : libebml v1.3.4 + libmatroska v1.4.5
    Video
    ID : 1
    Format : AVC
    Format/Info : Advanced Video Codec
    Format profile : High@L3.1
    Format settings, CABAC : Yes
    Format settings, ReFrames : 5 frames
    Codec ID : V_MPEG4/ISO/AVC
    Duration : 1 h 41 min
    Bit rate : 617 kb/s
    Width : 852 pixels
    Height : 456 pixels
    Display aspect ratio : 16:9
    Original display aspect rat : 1.85:1
    Frame rate mode : Constant
    Frame rate : 24.000 FPS
    Color space : YUV
    Chroma subsampling : 4:2:0
    Bit depth : 8 bits
    Scan type : Progressive
    Bits/(Pixel*Frame) : 0.066
    Stream size : 448 MiB (66%)
    Writing library : x264 core 129 r2245 bc13772
    Encoding settings : cabac=1 / ref=5 / deblock=1:0:0 / analyse=0x3:0x113 / me=umh / subme=9 / psy=1 / psy_rd=1.00:0.00 / mixed_ref=1 / me_range=16 / chroma_me=1 / trellis=1 / 8x8dct=1 / cqm=0 / deadzone=21,11 / fast_pskip=0 / chroma_qp_offset=-2 / threads=12 / lookahead_threads=2 / sliced_threads=0 / nr=0 / decimate=1 / interlaced=0 / bluray_compat=0 / constrained_intra=0 / bframes=8 / b_pyramid=2 / b_adapt=2 / b_bias=0 / direct=3 / weightb=1 / open_gop=0 / weightp=2 / keyint=250 / keyint_min=24 / scenecut=40 / intra_refresh=0 / rc_lookahead=50 / rc=crf / mbtree=1 / crf=23.0 / qcomp=0.60 / qpmin=0 / qpmax=69 / qpstep=4 / vbv_maxrate=10000 / vbv_bufsize=10000 / crf_max=0.0 / nal_hrd=none / ip_ratio=1.40 / aq=1:1.00
    Language : Russian
    Default : Yes
    Forced : Yes
    Audio
    ID : 2
    Format : AAC
    Format/Info : Advanced Audio Codec
    Format profile : LC
    Codec ID : A_AAC
    Duration : 1 h 41 min
    Bit rate : 317 kb/s
    Channel(s) : 2 channels
    Channel positions : Front: L R
    Sampling rate : 44.1 kHz
    Frame rate : 43.066 FPS (1024 spf)
    Compression mode : Lossy
    Stream size : 231 MiB (34%)
    Language : Russian
    Default : Yes
    Forced : Yes

    Источник

    На трекере уже есть раздача данного фильма, но без голосового перевода, вот ссылка на него: http://perectracker.org/http://perectracker.org/viewtopic.php?t=5257457

    Скриншоты

    Скачать .torrent

    Скачать торрент-файл бесплатно и на максимальной скорости!

    Как скачивать? · Что такое торрент? · Рейтинг и ограничения

    !ВНИМАНИЕ!
    Сайт не распространяет и не хранит электронные версии произведений, а занимается лишь лишь предоставлением доступа к создаваемому пользователями каталогу ссылок на торрент-файлы, которые содержат только списки хеш-сумм, убедительная просьба с жалобами обращаться напрямую к пользователю. Файлы для обмена на трекере предоставлены пользователями сайта, и администрация не несёт ответственности за их содержание. Просьба не заливать файлы, защищенные авторскими правами, а также файлы нелегального содержания!


    _________________
    [Профиль] [ЛС]
    Показать сообщения:    
    Ответить на тему

    Текущее время: Сегодня, в 18:32

    Часовой пояс: GMT + 2



    Вы не можете начинать темы
    Вы не можете отвечать на сообщения
    Вы не можете редактировать свои сообщения
    Вы не можете удалять свои сообщения
    Вы не можете голосовать в опросах
    Вы не можете прикреплять файлы к сообщениям
    Вы не можете скачивать файлы