BitTorrentTracker PerecTracker.org
BitTorrentTracker PerecTracker.org
    
Регистрация  ·  Вход
 
 · 
Забыли пароль?

  • Большой собачий побег / Ozzy (Альберто Родригез / Alberto Rodriguez, Начо Ла Каза / Nacho La Casa) [2016, Канада, Испания, Мультфильм, приключения, WEB-DLRip] Dub

    Ответить на тему
     
    Автор Сообщение

    Flirldrerve

    Создавать темы 01-Дек-2016 08:05

           

    [Цитировать]

    Большой собачий побег / Ozzy
    «Fast & Furry»
    -Страна: Канада, Испания
    Жанр: Мультфильм, приключения
    Продолжительность: 01:27:06
    Год выпуска: 2016
    Перевод: Профессиональный (дублированный)
    Русские субтитры: нет
    Режиссёр: Альберто Родригез / Alberto Rodriguez, Начо Ла Каза / Nacho La Casa
    Роли озвучивали: Гильермо Ромеро, Дэни Ровира, Хосе Мота, Мишель Хеннер, Карлос Аресес, Фернандо Техеро, Эктор Кантолья, Хуан Фернандес, Эльза Патаки
    Описание: Жизнь беспечного бигля Оззи переворачивается с лап на голову, когда, отправляясь в отпуск, семья Мартинов отдает его в элитный спа-отель для собак. Но хозяева не могли и представить, что это всего лишь ловушка, а их любимец окажется в настоящей собачьей тюрьме. Чтобы прорваться через супер-систему охраны и злющих сторожевых псов, Оззи вместе с такими же бедолагами, как он, должен будет спланировать самый хитроумный и дерзкий побег в истории.- / -Качество: WEB-DLRip
    Формат: AVI
    Видео: 688x384 (16:9), 25.000 fps, XviD, 985 Kbps
    Аудио: 48 kHz, AC3 Dolby Digital, 2/0 (L,R) ch, 128 Kbps [iTunes]
    Субтитры: "отсутствуют"

    MI

    General
    Complete name : Downloads\Ozzy.2O16.WEB-DLRip.avi
    Format : AVI
    Format/Info : Audio Video Interleave
    File size : 699 MiB
    Duration : 1h 27mn
    Overall bit rate : 1 123 Kbps
    Writing application : VirtualDubMod 1.5.10.2 (build 2540/release)
    Writing library : VirtualDubMod build 2540/release
    Video #0
    ID : 0
    Format : MPEG-4 Visual
    Format profile : Advanced Simple@L5
    Format settings, BVOP : 2
    Format settings, QPel : No
    Format settings, GMC : No warppoints
    Format settings, Matrix : Default (MPEG)
    Codec ID : XVID
    Codec ID/Hint : XviD
    Duration : 1h 27mn
    Bit rate : 985 Kbps
    Width : 688 pixels
    Height : 384 pixels
    Display aspect ratio : 16:9
    Frame rate : 25.000 fps
    Color space : YUV
    Chroma subsampling : 4:2:0
    Bit depth : 8 bits
    Scan type : Progressive
    Compression mode : Lossy
    Bits/(Pixel*Frame) : 0.149
    Stream size : 614 MiB (88%)
    Writing library : XviD 1.2.1 (UTC 2008-12-04)
    Audio #1
    ID : 1
    Format : AC-3
    Format/Info : Audio Coding 3
    Mode extension : CM (complete main)
    Format settings, Endianness : Big
    Codec ID : 2000
    Duration : 1h 27mn
    Bit rate mode : Constant
    Bit rate : 128 Kbps
    Channel(s) : 2 channels
    Channel positions : Front: L R
    Sampling rate : 48.0 KHz
    Bit depth : 16 bits
    Compression mode : Lossy
    Stream size : 79.8 MiB (11%)
    Alignment : Split accross interleaves
    Interleave, duration : 40 ms (1.00 video frame)
    Interleave, preload duration : 500 ms

    Скриншоты

    Скачать .torrent

    Скачать торрент-файл бесплатно и на максимальной скорости!

    Как скачивать? · Что такое торрент? · Рейтинг и ограничения

    !ВНИМАНИЕ!
    Сайт не распространяет и не хранит электронные версии произведений, а занимается лишь лишь предоставлением доступа к создаваемому пользователями каталогу ссылок на торрент-файлы, которые содержат только списки хеш-сумм, убедительная просьба с жалобами обращаться напрямую к пользователю. Файлы для обмена на трекере предоставлены пользователями сайта, и администрация не несёт ответственности за их содержание. Просьба не заливать файлы, защищенные авторскими правами, а также файлы нелегального содержания!


    _________________
    [Профиль] [ЛС]
    Показать сообщения:    
    Ответить на тему

    Текущее время: Сегодня, в 14:30

    Часовой пояс: GMT + 2



    Вы не можете начинать темы
    Вы не можете отвечать на сообщения
    Вы не можете редактировать свои сообщения
    Вы не можете удалять свои сообщения
    Вы не можете голосовать в опросах
    Вы не можете прикреплять файлы к сообщениям
    Вы не можете скачивать файлы