BitTorrentTracker PerecTracker.org
BitTorrentTracker PerecTracker.org
    
Регистрация  ·  Вход
 
 · 
Забыли пароль?

  • Последняя дорога (Леонид Менакер) [1986 г., драма, исторический, биографический, SATRip]

    Ответить на тему
     
    Автор Сообщение

    Light

    Создавать темы 07-Июл-2015 03:17

           

    [Цитировать]

    Последняя дорогаГод выпуска: 1986.
    Жанр: драма, исторический, биографический.
    Продолжительность: 01:33:28.
    Режиссер: Леонид Менакер.
    В ролях:
    Александр Калягин, Вадим Медведев, Ирина Купченко, Елена Караджова, Анна Каменкова, Иннокентий Смоктуновский, Гедиминас Сторпирштис, Сергей Сазонтьев, Вячеслав Езепов, Андрей Мягков, Альберт Филозов, Иван Краско, Всеволод Кузнецов, Сергей Жигунов, Михаил Глузский, Александр Романцов, Виктор Шульгин, Ольгерт Кродерс, Римма Маркова.
    Описание:
    Драматическая коллизия, приведшая к гибели Пушкина, перевернула судьбы близких ему людей. Кто виноват в случившемся? За что дрался на дуэли лучший русский поэт? Картина реконструирует события до и после пушкинской дуэли...
    Доп. информация:
    Страна: СССР .
    Киностудия: Ленфильм.
    Премьера: апрель 1987 года.
    Авторы сценария: Яков Гордин, Леонид Менакер.
    Оператор: Владимир Ковзель.
    Композитор: Андрей Петров.
    Художники: Марксэн Гаухман-Свердлов, Михаил Щеглов, Владислав Орлов.

    Еще постеры

    Релиз
    Рип с этой раздачи.
    Большое спасибо трус за предоставленый материал для рипа!!!

    Качество: SATRip
    Формат: AVI
    Видео: 640x496 (1.29:1), 25 fps, XviD build 73 ~1019 kbps avg, 0.13 bit/pixel
    Аудио: 48 kHz, MPEG Layer 3, 1 ch, ~96.00 kbps avg

    Отчет MI

    General
    Complete name : Poslednyaya.doroga.1986.XviD.SATRip_752.avi
    Format : AVI
    Format/Info : Audio Video Interleave
    File size : 752 MiB
    Duration : 1h 33mn
    Overall bit rate : 1 125 Kbps
    Writing application : VirtualDubMod 1.5.10.3 | www.virtualdub-fr.org || (build 2550/release)
    Writing library : VirtualDubMod build 2550/release
    Video
    ID : 0
    Format : MPEG-4 Visual
    Format profile : Advanced Simple@L5
    Format settings, BVOP : 2
    Format settings, QPel : No
    Format settings, GMC : No warppoints
    Format settings, Matrix : Custom
    Codec ID : XVID
    Codec ID/Hint : XviD
    Duration : 1h 33mn
    Bit rate : 1 020 Kbps
    Width : 640 pixels
    Height : 496 pixels
    Display aspect ratio : 1.290
    Frame rate : 25.000 fps
    Color space : YUV
    Chroma subsampling : 4:2:0
    Bit depth : 8 bits
    Scan type : Progressive
    Compression mode : Lossy
    Bits/(Pixel*Frame) : 0.128
    Stream size : 682 MiB (91%)
    Writing library : XviD 73
    Audio
    ID : 1
    Format : MPEG Audio
    Format version : Version 1
    Format profile : Layer 3
    Codec ID : 55
    Codec ID/Hint : MP3
    Duration : 1h 33mn
    Bit rate mode : Constant
    Bit rate : 96.0 Kbps
    Channel(s) : 1 channel
    Sampling rate : 48.0 KHz
    Compression mode : Lossy
    Stream size : 64.2 MiB (9%)
    Alignment : Aligned on interleaves
    Interleave, duration : 40 ms (1.00 video frame)
    Interleave, preload duratio : 504 ms
    Writing library : LAME3.99r
    Encoding settings : -m m -V 4 -q 2 -lowpass 20.5 -b 96
    Скриншоты

    Альтернативный хост

    Скачать .torrent

    Скачать торрент-файл бесплатно и на максимальной скорости!

    Как скачивать? · Что такое торрент? · Рейтинг и ограничения

    !ВНИМАНИЕ!
    Сайт не распространяет и не хранит электронные версии произведений, а занимается лишь лишь предоставлением доступа к создаваемому пользователями каталогу ссылок на торрент-файлы, которые содержат только списки хеш-сумм, убедительная просьба с жалобами обращаться напрямую к пользователю. Файлы для обмена на трекере предоставлены пользователями сайта, и администрация не несёт ответственности за их содержание. Просьба не заливать файлы, защищенные авторскими правами, а также файлы нелегального содержания!


    _________________
    [Профиль] [ЛС]
    Показать сообщения:    
    Ответить на тему

    Текущее время: Сегодня, в 14:58

    Часовой пояс: GMT + 2



    Вы не можете начинать темы
    Вы не можете отвечать на сообщения
    Вы не можете редактировать свои сообщения
    Вы не можете удалять свои сообщения
    Вы не можете голосовать в опросах
    Вы не можете прикреплять файлы к сообщениям
    Вы не можете скачивать файлы