BitTorrentTracker PerecTracker.org
BitTorrentTracker PerecTracker.org
    
Регистрация  ·  Вход
 
 · 
Забыли пароль?

  • День выборов (Олег Фомин) [2007, комедия, SATRip-AVC] [Режиссёрская версия]

    Ответить на тему
     
    Автор Сообщение

    Flirldrerve

    Создавать темы 30-Ноя-2016 04:20

           

    [Цитировать]

    День выборов / Режиссёрская версия
    Жанр: комедия
    Год выпуска: 2007
    Продолжительность: 02:38:38
    Режиссёр: Олег Фомин
    В ролях: Александр Демидов, Леонид Барац, Ростислав Хаит, Камиль Ларин, Максим Виторган, Нонна Гришаева, Василий Уткин, Михаил Ефремов, Евгений Стеблов, Дмитрий Певцов, Марат Башаров, Евгений Стычкин, Олег Фомин, Валерий Баринов, Анна Азарова, Елена Шевченко, Елена Князева, Михаил Козырев, Денис Константинов, Алексей Кортнев, Александр Семчев, Павел Абдалов, Михаил Евланов, Юрий Круценко, Александр Голубев, Сергей Шнуров, Владимир Бегунов, Владимир Шахрин, Андрей Григорьев-Апполонов, Кирилл Андреев, Олег Яковлев, Владимир Кристовский, Сергей Кристовский, Валерий Сюткин, Андрей Макаревич, Георгий Мартиросян
    Описание: Руководитель одной из самых рейтинговых радиостанций страны получает заказ от загадочного клиента.
    Необходимо «раскрутить» на региональных выборах своего кандидата, отобрать голоса у конкурентов и тем самым повлиять на избрание нового губернатора.
    За выполнение задачи государственной важности берутся лучшие умы радиостанции.
    Доп. информация: Раздача на замену данной http://perectracker.org/http://perectracker.org/viewtopic.php?t=5150917 :
    1 - Весь фильм одним файлом
    2 - Отсутствие видеоцензуры - http://screenshotcomparison.com/comparison/192233 - и аудиоцензуры - см. Сэмпл
    Сэмпл: https://www.sendspace.com/file/azmutg
    Качество видео: SATRip-AVC
    Формат видео: MKV
    Видео: MPEG-4 AVC/H.264 / 1771 kbps / 672x400 / 25.000 fps
    Аудио: AC3 / 2 ch / 192 kbps / 48 kHz
    Релиз от: kva

    MediaInfo

    General
    Unique ID : 213530919316030306481448153988348645336 (0xA0A48F24DE7D140188175DB62C560FD8)
    Complete name : J:\Torrents\День выборов (2007) SATRip-AVC (Режиссёрская версия).mkv
    Format : Matroska
    Format version : Version 2
    File size : 2.18 GiB
    Duration : 2h 38mn
    Overall bit rate : 1 964 Kbps
    Encoded date : UTC 2015-04-14 18:49:48
    Writing application : mkvmerge v5.5.0 ('Healer') built on Apr 24 2012 23:47:03
    Writing library : libebml v1.2.3 + libmatroska v1.3.0
    Video
    ID : 1
    Format : AVC
    Format/Info : Advanced Video Codec
    Format profile : High@L3
    Format settings, CABAC : Yes
    Format settings, ReFrames : 4 frames
    Muxing mode : Header stripping
    Codec ID : V_MPEG4/ISO/AVC
    Duration : 2h 38mn
    Bit rate : 1 771 Kbps
    Width : 672 pixels
    Height : 400 pixels
    Display aspect ratio : 5:3
    Original display aspect rat : 5:3
    Frame rate mode : Constant
    Frame rate : 25.000 fps
    Color space : YUV
    Chroma subsampling : 4:2:0
    Bit depth : 8 bits
    Scan type : Progressive
    Bits/(Pixel*Frame) : 0.264
    Stream size : 1.92 GiB (88%)
    Writing library : x264 core 142 r2431 ac76440
    Encoding settings : cabac=1 / ref=3 / deblock=1:-1:-1 / analyse=0x3:0x113 / me=hex / subme=7 / psy=1 / psy_rd=1.00:0.15 / mixed_ref=1 / me_range=16 / chroma_me=1 / trellis=1 / 8x8dct=1 / cqm=0 / deadzone=21,11 / fast_pskip=1 / chroma_qp_offset=-3 / threads=6 / lookahead_threads=1 / sliced_threads=0 / nr=0 / decimate=1 / interlaced=0 / bluray_compat=0 / constrained_intra=0 / bframes=3 / b_pyramid=2 / b_adapt=1 / b_bias=0 / direct=1 / weightb=1 / open_gop=0 / weightp=2 / keyint=250 / keyint_min=25 / scenecut=40 / intra_refresh=0 / rc_lookahead=40 / rc=2pass / mbtree=1 / bitrate=1771 / ratetol=1.0 / qcomp=0.60 / qpmin=0 / qpmax=69 / qpstep=4 / cplxblur=20.0 / qblur=0.5 / ip_ratio=1.40 / aq=1:1.00
    Default : Yes
    Forced : No
    Audio
    ID : 2
    Format : AC-3
    Format/Info : Audio Coding 3
    Mode extension : CM (complete main)
    Format settings, Endianness : Big
    Muxing mode : Header stripping
    Codec ID : A_AC3
    Duration : 2h 38mn
    Bit rate mode : Constant
    Bit rate : 192 Kbps
    Channel(s) : 2 channels
    Channel positions : Front: L R
    Sampling rate : 48.0 KHz
    Frame rate : 31.250 fps (1536 spf)
    Compression mode : Lossy
    Delay relative to video : 100ms
    Stream size : 218 MiB (10%)
    Language : Russian
    Default : Yes
    Forced : No

    Скриншот c названием фильма

    Скачать .torrent

    Скачать торрент-файл бесплатно и на максимальной скорости!

    Как скачивать? · Что такое торрент? · Рейтинг и ограничения

    !ВНИМАНИЕ!
    Сайт не распространяет и не хранит электронные версии произведений, а занимается лишь лишь предоставлением доступа к создаваемому пользователями каталогу ссылок на торрент-файлы, которые содержат только списки хеш-сумм, убедительная просьба с жалобами обращаться напрямую к пользователю. Файлы для обмена на трекере предоставлены пользователями сайта, и администрация не несёт ответственности за их содержание. Просьба не заливать файлы, защищенные авторскими правами, а также файлы нелегального содержания!


    _________________
    [Профиль] [ЛС]
    Показать сообщения:    
    Ответить на тему

    Текущее время: Сегодня, в 16:28

    Часовой пояс: GMT + 2



    Вы не можете начинать темы
    Вы не можете отвечать на сообщения
    Вы не можете редактировать свои сообщения
    Вы не можете удалять свои сообщения
    Вы не можете голосовать в опросах
    Вы не можете прикреплять файлы к сообщениям
    Вы не можете скачивать файлы