BitTorrentTracker PerecTracker.org
BitTorrentTracker PerecTracker.org
    
Регистрация  ·  Вход
 
 · 
Забыли пароль?

  • Вшестером целый свет обойдём / Sechse kommen durch die ganze Welt (Уве Янсон / Uwe Janson) [2014, Германия, сказка, фэнтези, приключения, семейный, HDTV 1080i] MVO (Игмар) + Original Ger

    Ответить на тему
     
    Автор Сообщение

    Light

    Создавать темы 29-Ноя-2016 21:05

           

    [Цитировать]

    Вшестером целый свет обойдём / Sechse kommen durch die ganze Welt

    Страна: Германия
    Жанр: сказка, фэнтези, приключения, семейный
    Год выпуска: 2014
    Продолжительность: 00:58:57
    Перевод: Профессиональный (многоголосый закадровый) Компания "Игмар"
    Cубтитры: нет
    Оригинальная аудиодорожка: немецкий
    Режиссер: Уве Янсон / Uwe Janson
    В ролях: Тони Аранго, Себастиан Беццель, Рафаэль Гарайзен, Максимилиан Гелина, Лаура Мария Хейд, Кевин Куске, Николь Мюллер, Антон Рубцов, Эмиль Рейнке
    Описание: Музыкант Яспер и принцесса Элла любят друг друга, но злой и капризный король не хочет выдавать свою дочь замуж за бедного музыканта. Обманом он разлучает влюбленных, и лишь пятеро необыкновенных друзей смогут помочь Ясперу вернуть его любимую.
    По мотивам одноименной сказки Братьев Гримм.

    Доп. информация: За русскую дорожку большая благодарность Raptorio Rio.
    Сэмпл: https://yadi.sk/i/mDBVvHgqzLYFe
    Тип релиза: HDTV 1080i
    Контейнер: MKV
    Видео: AVC, 1920x1080, 16:9, 4748 kbps, 25.000 fps
    Аудио 1: RUS, AC3, 2.0, 48 kHz, 192 kbps
    Аудио 2: GER, AC3, 2.0, 48 kHz, 192 kbps

    MediaInfo

    General
    Unique ID : 182838254138120993401193679943273950657 (0x898D5DEAB1E11206BB05A98FA13A2DC1)
    Complete name : Вшестером целый свет обойдём [2014] 1080i.mkv
    Format : Matroska
    Format version : Version 4 / Version 2
    File size : 2.16 GiB
    Duration : 58mn 57s
    Overall bit rate : 5 236 Kbps
    Encoded date : UTC 2016-11-23 22:22:02
    Writing application : mkvmerge v8.3.0 ('Over the Horizon') 32bit
    Writing library : libebml v1.3.1 + libmatroska v1.4.2
    Video
    ID : 1
    Format : AVC
    Format/Info : Advanced Video Codec
    Format profile : High@L4
    Format settings, CABAC : Yes
    Format settings, ReFrames : 4 frames
    Codec ID : V_MPEG4/ISO/AVC
    Duration : 58mn 57s
    Bit rate : 4 748 Kbps
    Width : 1 920 pixels
    Height : 1 088 pixels
    Original height : 1 080 pixels
    Display aspect ratio : 16:9
    Frame rate mode : Constant
    Frame rate : 25.000 fps
    Color space : YUV
    Chroma subsampling : 4:2:0
    Bit depth : 8 bits
    Scan type : MBAFF
    Scan order : Top Field First
    Bits/(Pixel*Frame) : 0.091
    Stream size : 1.95 GiB (91%)
    Language : German
    Default : Yes
    Forced : No
    Audio #1
    ID : 2
    Format : AC-3
    Format/Info : Audio Coding 3
    Mode extension : CM (complete main)
    Format settings, Endianness : Big
    Codec ID : A_AC3
    Duration : 58mn 57s
    Bit rate mode : Constant
    Bit rate : 192 Kbps
    Channel(s) : 2 channels
    Channel positions : Front: L R
    Sampling rate : 48.0 KHz
    Compression mode : Lossy
    Delay relative to video : -120ms
    Stream size : 81.0 MiB (4%)
    Title : MVO (Игмар)
    Language : Russian
    Default : Yes
    Forced : No
    Audio #2
    ID : 3
    Format : AC-3
    Format/Info : Audio Coding 3
    Mode extension : CM (complete main)
    Format settings, Endianness : Big
    Codec ID : A_AC3
    Duration : 58mn 57s
    Bit rate mode : Constant
    Bit rate : 192 Kbps
    Channel(s) : 2 channels
    Channel positions : Front: L R
    Sampling rate : 48.0 KHz
    Compression mode : Lossy
    Delay relative to video : -120ms
    Stream size : 81.0 MiB (4%)
    Title : GER
    Language : German
    Default : No
    Forced : No

    Скриншоты

    Скачать .torrent

    Скачать торрент-файл бесплатно и на максимальной скорости!

    Как скачивать? · Что такое торрент? · Рейтинг и ограничения

    !ВНИМАНИЕ!
    Сайт не распространяет и не хранит электронные версии произведений, а занимается лишь лишь предоставлением доступа к создаваемому пользователями каталогу ссылок на торрент-файлы, которые содержат только списки хеш-сумм, убедительная просьба с жалобами обращаться напрямую к пользователю. Файлы для обмена на трекере предоставлены пользователями сайта, и администрация не несёт ответственности за их содержание. Просьба не заливать файлы, защищенные авторскими правами, а также файлы нелегального содержания!


    _________________
    [Профиль] [ЛС]
    Показать сообщения:    
    Ответить на тему

    Текущее время: Сегодня, в 16:29

    Часовой пояс: GMT + 2



    Вы не можете начинать темы
    Вы не можете отвечать на сообщения
    Вы не можете редактировать свои сообщения
    Вы не можете удалять свои сообщения
    Вы не можете голосовать в опросах
    Вы не можете прикреплять файлы к сообщениям
    Вы не можете скачивать файлы