BitTorrentTracker PerecTracker.org
BitTorrentTracker PerecTracker.org
    
Регистрация  ·  Вход
 
 · 
Забыли пароль?

  • Любовь и дружба / Love & Friendship (Уит Стиллман / Whit Stillman) [2016, Ирландия, Франция, Нидерланды, драма, мелодрама, комедия, BDRip 720p] Dub (iTunes) + Sub Eng + Original Eng

    Ответить на тему
     
    Автор Сообщение

    Light

    Создавать темы 29-Ноя-2016 21:05

           

    [Цитировать]

    Любовь и дружба / Love & Friendship
    Страна: Ирландия, Франция, Нидерланды
    Студия: Blinder Films, Centre National de la Cinématographie et de l'Image Animée
    Жанр: драма, мелодрама, комедия
    Год выпуска: 2016
    Продолжительность: 01:33:19--Перевод: Профессиональный (дублированный) iTunes
    Cубтитры: английские
    Оригинальная аудио дорожка: английская--Режиссер: Уит Стиллман / Whit Stillman--В ролях: Кейт Бекинсейл, Морфидд Кларк, Том Беннетт, Дженн Мюррэй, Лохлэйнн О’Меарайн, Софи Радермахер, Клоэ Севиньи, Стивен Фрай, Джордан Уоллер, Росс Мак Махон--Описание: Прекрасная молодая вдова леди Сьюзан приезжает в имение семьи покойного мужа переждать, пока в высшем обществе перестанут судачить о ее похождениях, и придумать, как поправить свое финансовое положение. Не теряя времени даром, она решает подыскать богатого мужа себе и своей юной дочери. В ход идут не только красота и обаяние, но и острый насмешливый ум и невероятный талант плести интриги.--Доп. информация: Навигация по главам от BDRemux--Сэмпл: http://sendfile.su/1284902--Тип релиза: BDRip 720p
    Контейнер: MKV
    Видео кодек: H.264
    Аудио кодек: AC-3, DTS
    Видео: MPEG4/AVC, 1280x690, 1.85:1, 23.976 (24000/1001) FPS, 6947 kb/s
    Аудио 1: RUS / DUB, AC-3, 5.0, 48.0 kHz, 384 kb/s | дубляж
    Аудио 2: ENG / нет, DTS, 5.0, 48.0 kHz, 1509 kb/s | оригинал
    Формат субтитров: softsub (SRT)
    Релиз:

    MediaInfo

    x264
    x264 [info]: frame I:957 Avg QP:13.57 size: 170924
    x264 [info]: frame P:26191 Avg QP:15.50 size: 74640
    x264 [info]: frame B:107084 Avg QP:16.73 size: 26772
    Формат : Matroska
    Версия формата : Version 2
    Размер файла : 5,88 Гбайт
    Продолжительность : 1 ч. 33 м.
    Общий поток : 9020 Кбит/сек
    Дата кодирования : UTC 2016-11-24 05:44:18
    Программа кодирования : mkvmerge v7.6.0 ('Garden of Dreams') 32bit built on Feb 11 2015 00:18:47
    Библиотека кодирования : libebml v1.3.1 + libmatroska v1.4.2
    Видео
    Идентификатор : 1
    Формат : AVC
    Формат/Информация : Advanced Video Codec
    Профиль формата : High@L4.1
    Параметр CABAC формата : Да
    Параметр ReFrames формата : 9 кадров
    Идентификатор кодека : V_MPEG4/ISO/AVC
    Продолжительность : 1 ч. 33 м.
    Битрейт : 6947 Кбит/сек
    Ширина : 1280 пикселей
    Высота : 690 пикселей
    Соотношение сторон : 1,85:1
    Режим частоты кадров : Постоянный
    Частота кадров : 23,976 (24000/1001) кадра/сек
    Цветовое пространство : YUV
    Субдискретизация насыщенности : 4:2:0
    Битовая глубина : 8 бит
    Тип развёртки : Прогрессивная
    Бит/(Пиксели*Кадры) : 0.328
    Размер потока : 4,53 Гбайт (77%)
    Заголовок : Love And Friendship - Release for Rutracker from the LION
    Библиотека кодирования : x264 core 148 r2721 72d53ab
    Настройки программы : cabac=1 / ref=9 / deblock=1:-3:-3 / analyse=0x3:0x113 / me=umh / subme=10 / psy=1 / psy_rd=1.10:0.05 / mixed_ref=1 / me_range=32 / chroma_me=1 / trellis=2 / 8x8dct=1 / cqm=0 / deadzone=21,11 / fast_pskip=1 / chroma_qp_offset=-3 / threads=6 / lookahead_threads=1 / sliced_threads=0 / nr=0 / decimate=0 / interlaced=0 / bluray_compat=0 / constrained_intra=0 / bframes=8 / b_pyramid=2 / b_adapt=2 / b_bias=0 / direct=1 / weightb=1 / open_gop=0 / weightp=2 / keyint=240 / keyint_min=23 / scenecut=40 / intra_refresh=0 / rc_lookahead=60 / rc=crf / mbtree=0 / crf=15.5 / qcomp=0.66 / qpmin=0 / qpmax=69 / qpstep=4 / vbv_maxrate=62500 / vbv_bufsize=78125 / crf_max=0.0 / nal_hrd=none / filler=0 / ip_ratio=1.30 / pb_ratio=1.20 / aq=2:0.78
    Default : Да
    Forced : Нет
    Statistics Tags Issue : mkvmerge v9.5.0 ('Quiet Fire') 32bit 2016-11-24 01:42:32 / mkvmerge v7.6.0 ('Garden of Dreams') 32bit built on Feb 11 2015 00:18:47 2016-11-24 05:44:18
    FromStats_BitRate : 7123740
    FromStats_Duration : 01:33:18.593000000
    FromStats_FrameCount : 134232
    FromStats_StreamSize : 4985365753
    Аудио #1
    Идентификатор : 2
    Формат : AC-3
    Формат/Информация : Audio Coding 3
    Расширение режима : CM (complete main)
    Параметр Endianness формата : Big
    Идентификатор кодека : A_AC3
    Продолжительность : 1 ч. 33 м.
    Вид битрейта : Постоянный
    Битрейт : 384 Кбит/сек
    Каналы : 6 каналов
    Расположение каналов : Front: L C R, Side: L R, LFE
    Частота : 48,0 КГц
    Частота кадров : 31,250 кадров/сек (1536 spf)
    Битовая глубина : 16 бит
    Метод сжатия : С потерями
    Размер потока : 256 Мбайт (4%)
    Заголовок : дубляж
    Язык : Russian
    Default : Да
    Forced : Нет
    Аудио #2
    Идентификатор : 3
    Формат : DTS
    Формат/Информация : Digital Theater Systems
    Режим : 16
    Параметр Endianness формата : Big
    Идентификатор кодека : A_DTS
    Продолжительность : 1 ч. 33 м.
    Вид битрейта : Постоянный
    Битрейт : 1509 Кбит/сек
    Каналы : 6 каналов
    Расположение каналов : Front: L C R, Side: L R, LFE
    Частота : 48,0 КГц
    Частота кадров : 93,750 кадра/сек (512 spf)
    Битовая глубина : 24 бит
    Метод сжатия : С потерями
    Размер потока : 1007 Мбайт (17%)
    Заголовок : оригинал
    Язык : English
    Default : Нет
    Forced : Нет
    Текст
    Идентификатор : 4
    Формат : UTF-8
    Идентификатор кодека : S_TEXT/UTF8
    Идентификатор кодека/Информация : UTF-8 Plain Text
    Заголовок : английские
    Язык : English
    Default : Нет
    Forced : Нет
    Меню
    00:00:00.000 : en:Chapter 1
    00:06:18.962 : en:Chapter 2
    00:14:33.581 : en:Chapter 3
    00:22:33.686 : en:Chapter 4
    00:29:48.620 : en:Chapter 5
    00:34:52.382 : en:Chapter 6
    00:41:29.237 : en:Chapter 7
    00:47:13.956 : en:Chapter 8
    00:51:01.225 : en:Chapter 9
    00:53:26.745 : en:Chapter 10
    00:59:29.399 : en:Chapter 11
    01:04:45.131 : en:Chapter 12
    01:07:36.761 : en:Chapter 13
    01:13:18.769 : en:Chapter 14
    01:19:51.036 : en:Chapter 15
    01:25:54.483 : en:Chapter 16

    Скриншоты

    Скачать .torrent

    Скачать торрент-файл бесплатно и на максимальной скорости!

    Как скачивать? · Что такое торрент? · Рейтинг и ограничения

    !ВНИМАНИЕ!
    Сайт не распространяет и не хранит электронные версии произведений, а занимается лишь лишь предоставлением доступа к создаваемому пользователями каталогу ссылок на торрент-файлы, которые содержат только списки хеш-сумм, убедительная просьба с жалобами обращаться напрямую к пользователю. Файлы для обмена на трекере предоставлены пользователями сайта, и администрация не несёт ответственности за их содержание. Просьба не заливать файлы, защищенные авторскими правами, а также файлы нелегального содержания!


    _________________
    [Профиль] [ЛС]
    Показать сообщения:    
    Ответить на тему

    Текущее время: Сегодня, в 18:29

    Часовой пояс: GMT + 2



    Вы не можете начинать темы
    Вы не можете отвечать на сообщения
    Вы не можете редактировать свои сообщения
    Вы не можете удалять свои сообщения
    Вы не можете голосовать в опросах
    Вы не можете прикреплять файлы к сообщениям
    Вы не можете скачивать файлы