BitTorrentTracker PerecTracker.org
BitTorrentTracker PerecTracker.org
    
Регистрация  ·  Вход
 
 · 
Забыли пароль?

  • Могучий Джо Янг / Mighty Joe Young (Рон Андервуд / Ron Underwood) [1998, США, фэнтези, боевик, приключения, семейный, WEB-DL 720p] Dub (Невафильм) + MVO (СТС) + AVO (Александр Кашкин) + Sub Eng + Original Eng

    Ответить на тему
     
    Автор Сообщение

    Light

    Создавать темы 29-Ноя-2016 21:05

           

    [Цитировать]

    Могучий Джо Янг / Mighty Joe Young
    Страна: США
    Жанр: фэнтези, боевик, приключения, семейный
    Год выпуска: 1998
    Продолжительность: 01:54:27
    Перевод 1: Профессиональный (дублированный) Невафильм
    Перевод 2: Профессиональный (многоголосый закадровый) СТС
    Перевод 3: Авторский (одноголосый закадровый) Александр Кашкин
    Cубтитры: английские
    Оригинальная аудиодорожка: английский
    Режиссер: Рон Андервуд / Ron Underwood
    В ролях: Шарлиз Терон, Билл Пэкстон, Раде Шербеджия, Питер Фёрт, Дэвид Пэймер, Реджина Кинг, Роберт Уиздом, Навин Эндрюс, Лоуренс Прессман, Линда Перл...
    Описание: От его поступи содрогается земля. Его вид приводит в трепет любого. Его мощи позавидуют самые отчаянные силачи. Его неспособна удержать ни одна клетка в мире. Могучий Джо Янг не хочет войны, но он сможет постоять за себя и защитить своих друзей, кто бы ни встал на его пути…
    Доп. информация: Оцифровка дубляжа - RockNIK. Перевод СТС с раздачи formally. Перевод Кашкина с раздачи W.A.S.P. Синхронизация звука - Dreven.
    Сэмпл: http://sendfile.su/1285021
    Тип релиза: WEB-DL 720p
    Контейнер: MKV
    Видео: 1280x686 (1.85:1), 23.976 fps, AVC, ~3817 Kbps, 0.181 bits/pixel
    Аудио 1: Russian, 48.0 KHz, AC3, 2 ch, 224 Kbps - Невафильм
    Аудио 2: Russian, 48.0 KHz, AC3, 2 ch, 192 Kbps - СТС
    Аудио 3: Russian, 48.0 KHz, AC3, 6 ch, 384 Kbps - Александр Кашкин
    Аудио 4: English, 48.0 KHz, AC3, 6 ch, 384 Kbps

    MediaInfo

    General
    Unique ID : 223815763830423427830062550973477117766 (0xA8615920ED916D3DAC794C5A6C8D5F46)
    Complete name : C:\Mighty Joe Young 1998 WEB-DL 720p.mkv
    Format : Matroska
    Format version : Version 4 / Version 2
    File size : 4.08 GiB
    Duration : 1h 54mn
    Overall bit rate : 5 102 Kbps
    Encoded date : UTC 2016-11-24 18:24:45
    Writing application : mkvmerge v9.4.2 ('So High') 64bit
    Writing library : libebml v1.3.4 + libmatroska v1.4.5
    Attachments : Poster.jpg
    Video
    ID : 1
    Format : AVC
    Format/Info : Advanced Video Codec
    Format profile : High@L3.1
    Format settings, CABAC : No
    Format settings, ReFrames : 2 frames
    Codec ID : V_MPEG4/ISO/AVC
    Duration : 1h 54mn
    Bit rate : 3 918 Kbps
    Width : 1 280 pixels
    Height : 686 pixels
    Display aspect ratio : 1.85:1
    Frame rate mode : Constant
    Frame rate : 23.976 (23976/1000) fps
    Color space : YUV
    Chroma subsampling : 4:2:0
    Bit depth : 8 bits
    Scan type : Progressive
    Bits/(Pixel*Frame) : 0.186
    Stream size : 3.13 GiB (77%)
    Language : English
    Default : Yes
    Forced : No
    Color range : Limited
    Color primaries : BT.709
    Transfer characteristics : BT.709
    Matrix coefficients : BT.709
    Audio #1
    ID : 2
    Format : AC-3
    Format/Info : Audio Coding 3
    Mode extension : CM (complete main)
    Format settings, Endianness : Big
    Codec ID : A_AC3
    Duration : 1h 54mn
    Bit rate mode : Constant
    Bit rate : 224 Kbps
    Channel(s) : 2 channels
    Channel positions : Front: L R
    Sampling rate : 48.0 KHz
    Frame rate : 31.250 fps (1536 spf)
    Compression mode : Lossy
    Stream size : 183 MiB (4%)
    Title : Невафильм
    Language : Russian
    Default : Yes
    Forced : No
    Audio #2
    ID : 3
    Format : AC-3
    Format/Info : Audio Coding 3
    Mode extension : CM (complete main)
    Format settings, Endianness : Big
    Codec ID : A_AC3
    Duration : 1h 54mn
    Bit rate mode : Constant
    Bit rate : 192 Kbps
    Channel(s) : 2 channels
    Channel positions : Front: L R
    Sampling rate : 48.0 KHz
    Frame rate : 31.250 fps (1536 spf)
    Compression mode : Lossy
    Stream size : 157 MiB (4%)
    Title : СТС
    Language : Russian
    Default : No
    Forced : No
    Audio #3
    ID : 4
    Format : AC-3
    Format/Info : Audio Coding 3
    Mode extension : CM (complete main)
    Format settings, Endianness : Big
    Codec ID : A_AC3
    Duration : 1h 54mn
    Bit rate mode : Constant
    Bit rate : 384 Kbps
    Channel(s) : 6 channels
    Channel positions : Front: L C R, Side: L R, LFE
    Sampling rate : 48.0 KHz
    Frame rate : 31.250 fps (1536 spf)
    Compression mode : Lossy
    Stream size : 314 MiB (8%)
    Title : Александр Кашкин
    Language : Russian
    Default : No
    Forced : No
    Audio #4
    ID : 5
    Format : AC-3
    Format/Info : Audio Coding 3
    Mode extension : CM (complete main)
    Format settings, Endianness : Big
    Codec ID : A_AC3
    Duration : 1h 54mn
    Bit rate mode : Constant
    Bit rate : 384 Kbps
    Channel(s) : 6 channels
    Channel positions : Front: L C R, Side: L R, LFE
    Sampling rate : 48.0 KHz
    Frame rate : 31.250 fps (1536 spf)
    Compression mode : Lossy
    Stream size : 314 MiB (8%)
    Language : English
    Default : No
    Forced : No
    Text
    ID : 6
    Format : UTF-8
    Codec ID : S_TEXT/UTF8
    Codec ID/Info : UTF-8 Plain Text
    Duration : 1h 44mn
    Bit rate : 48 bps
    Count of elements : 937
    Stream size : 37.3 KiB (0%)
    Language : English
    Default : No
    Forced : No
    Menu
    00:00:00.000 : en:Program Start
    00:01:02.000 : en:The Goodnight Song
    00:10:57.000 : en:Looking For A Legend
    00:15:29.000 : en:N'Gai Zamu
    00:23:49.000 : en:Lucky To Be Alive
    00:26:31.000 : en:Hide And Seek
    00:32:44.000 : en:Not What He Seems
    00:36:35.000 : en:Time To Trust
    00:41:57.000 : en:A New Home
    00:53:02.000 : en:Strasser's Justice
    01:00:28.000 : en:Provoked
    01:13:56.000 : en:Escape
    01:19:47.000 : en:Jill Remembers
    01:26:33.000 : en:Towards The Light
    01:33:33.000 : en:Rush Into Danger
    01:45:25.000 : en:End Credits

    Скриншоты

    Скачать .torrent

    Скачать торрент-файл бесплатно и на максимальной скорости!

    Как скачивать? · Что такое торрент? · Рейтинг и ограничения

    !ВНИМАНИЕ!
    Сайт не распространяет и не хранит электронные версии произведений, а занимается лишь лишь предоставлением доступа к создаваемому пользователями каталогу ссылок на торрент-файлы, которые содержат только списки хеш-сумм, убедительная просьба с жалобами обращаться напрямую к пользователю. Файлы для обмена на трекере предоставлены пользователями сайта, и администрация не несёт ответственности за их содержание. Просьба не заливать файлы, защищенные авторскими правами, а также файлы нелегального содержания!


    _________________
    [Профиль] [ЛС]
    Показать сообщения:    
    Ответить на тему

    Текущее время: Сегодня, в 20:05

    Часовой пояс: GMT + 2



    Вы не можете начинать темы
    Вы не можете отвечать на сообщения
    Вы не можете редактировать свои сообщения
    Вы не можете удалять свои сообщения
    Вы не можете голосовать в опросах
    Вы не можете прикреплять файлы к сообщениям
    Вы не можете скачивать файлы