BitTorrentTracker PerecTracker.org
BitTorrentTracker PerecTracker.org
    
Регистрация  ·  Вход
 
 · 
Забыли пароль?

  • Тёмная лошадка / The Dark Horse / Genesis (Джеймс Напье / James Napier Robertson) [2014, Новая Зеландия, драма, BDRip 1080p] AVO (Карповский) + Original Eng + Sub Eng

    Ответить на тему
     
    Автор Сообщение

    Light

    Создавать темы 29-Ноя-2016 21:05

           

    [Цитировать]

    Тёмная лошадка / The Dark Horse / Genesis
    Страна: Новая Зеландия
    Студия: Four Knights Film, Southern Light Films
    Жанр: Драма
    Год выпуска: 2014
    Продолжительность: 02:04:29
    Перевод: Авторский (одноголосый закадровый) Антон Карповский
    Cубтитры: английские (SDH)
    Оригинальная аудиодорожка: Английский
    Режиссер: Джеймс Напье / James Napier Robertson
    В ролях: Клифф Кёртис, Джеймс Роллестон, Кирк Торранс, Мириама Макдауэлл, Джеймс Напье, Бэрри Те Хира, Ксавьер Хоран, Уэйн Хэпи, Лель Тиму, Тэ Аэранги Ретимана-Мартин
    Описание: Фильм основан на реальных событиях. В основе сюжета - нелёгкая жизнь двух братьев, один из которых - Арики, - доживает жизнь старым бандитом, а второй Дженесис - полжизни провел в психушках, где от скуки научился отлично играть в шахматы. По мнению врачей Дженесис не может жить без опекуна, поэтому его отпускают на поруки к брату. Однако, тот не стал долго возиться с проблемным родственником, и попросил его уйти на все четыре стороны. Дженесис как может борется за обретение смысла в этом мире, где ни он сам, ни брат его, уже никому не нужны. Такими же ненужными растут и дети вокруг. Борясь за место под солнцем Дженесис находит своё призвание в шахматном клубе для проблемных детей "Восточные Кони", с которыми едет на крупный турнир в Окленд. Этот фильм о победе духа над немощью. И каждый идет к своей победе своими путями. Многих забирает из жизни поражение, но иные уходят навсегда как мифический жрец Тохунгу - в царство духов, ибо явили при этой жизни духовный подвиг выдающегося содержания.
    Дополнительная информация:
    Автор релиза -
    Заказ перевода у Антона Карповского (ноябрь 2016) - ylnian
    За сборку дороги спасибо rammzez
    Источник для рипа - Blu-Ray (GER) - The.Dark.Horse.2014.DUAL.COMPLETE.BLURAY-BDA
    Сохранены чаптеры с BD
    Субтитры взяты в сети
    Описание - из рецензии Антона Карповского
    Внимание! В переводе присутствует ненормативная лексика!


    Сэмпл: https://yadi.sk/i/AKeTLwkNzTnQw
    Качество видео: BDRip 1080р
    Формат видео: MKV
    Видео: MPEG-4, 1920x816 (2,35:1), 23.976 fps, 10900 kbps, 0.289 bit/pixel
    Аудио 1: Русский DTS 5.1 / 48 kHz / 768 kbps / 16-bit
    Аудио 2: Английский DTS 5.1 / 48 kHz / 768 kbps / 16-bit
    Формат субтитров: softsub (SRT)

    MediaInfo

    ---[Information] [12.11.2016 20:08:27] raw [info]: 1920x816p 1:1 @ 24000/1001 fps (cfr)
    ---[Information] [12.11.2016 20:08:27] x264 [info]: using SAR=1/1
    ---[Information] [12.11.2016 20:08:27] x264 [info]: using cpu capabilities: MMX2 SSE2Fast SSSE3 SSE4.2 AVX FMA3 AVX2 LZCNT BMI2
    ---[Information] [12.11.2016 20:08:27] x264 [info]: profile High, level 4.1
    ---[Information] [13.11.2016 6:46:48] x264 [info]: frame I:1080 Avg QP:15.57 size:157787
    ---[Information] [13.11.2016 6:46:48] x264 [info]: frame P:36246 Avg QP:16.64 size: 88470
    ---[Information] [13.11.2016 6:46:48] x264 [info]: frame B:141754 Avg QP:18.24 size: 47748
    ---[Information] [13.11.2016 6:46:48] x264 [info]: consecutive B-frames: 1.7% 2.3% 8.7% 8.0% 7.0% 64.8% 3.2% 0.5% 0.9% 1.4% 1.6%
    ---[Information] [13.11.2016 6:46:48] x264 [info]: mb I I16..4: 20.1% 62.0% 17.9%
    ---[Information] [13.11.2016 6:46:48] x264 [info]: mb P I16..4: 6.5% 18.4% 3.4% P16..4: 26.2% 29.5% 7.6% 1.1% 0.0% skip: 7.2%
    ---[Information] [13.11.2016 6:46:48] x264 [info]: mb B I16..4: 0.7% 2.4% 0.2% B16..8: 51.6% 23.7% 3.8% direct: 4.7% skip:12.9% L0:47.9% L1:41.1% BI:11.0%
    ---[Information] [13.11.2016 6:46:48] x264 [info]: 8x8 transform intra:67.1% inter:54.4%
    ---[Information] [13.11.2016 6:46:48] x264 [info]: direct mvs spatial:34.7% temporal:65.3%
    ---[Information] [13.11.2016 6:46:48] x264 [info]: coded y,uvDC,uvAC intra: 79.5% 80.7% 66.4% inter: 43.1% 45.3% 14.3%
    ---[Information] [13.11.2016 6:46:48] x264 [info]: i16 v,h,dc,p: 19% 11% 17% 53%
    ---[Information] [13.11.2016 6:46:48] x264 [info]: i8 v,h,dc,ddl,ddr,vr,hd,vl,hu: 9% 7% 12% 10% 13% 13% 12% 12% 12%
    ---[Information] [13.11.2016 6:46:48] x264 [info]: i4 v,h,dc,ddl,ddr,vr,hd,vl,hu: 17% 9% 27% 6% 9% 8% 8% 7% 9%
    ---[Information] [13.11.2016 6:46:48] x264 [info]: i8c dc,h,v,p: 45% 24% 19% 12%
    ---[Information] [13.11.2016 6:46:48] x264 [info]: Weighted P-Frames: Y:4.7% UV:2.7%
    ---[Information] [13.11.2016 6:46:48] x264 [info]: ref P L0: 56.0% 9.3% 21.5% 11.8% 1.3% 0.0%
    ---[Information] [13.11.2016 6:46:48] x264 [info]: ref B L0: 88.1% 9.5% 2.4%
    ---[Information] [13.11.2016 6:46:48] x264 [info]: ref B L1: 93.1% 6.9%
    ---[Information] [13.11.2016 6:46:48] x264 [info]: kb/s:10866.73
    ---[Information] [13.11.2016 6:46:48] encoded 179080 frames, 4.68 fps, 10866.73 kb/s
    General
    Unique ID : 193106874133933603982502642947780788186 (0x914707F88A039D368C4D41F358CC3FDA)
    Complete name : E:\The.Dark.Horse.2014.BDRip.1080p-ylnian.mkv
    Format : Matroska
    Format version : Version 4 / Version 2
    File size : 10.8 GiB
    Duration : 2 h 4 min
    Overall bit rate : 12.4 Mb/s
    Movie name : The.Dark.Horse.2014.BDRip.1080p-ylnian
    Encoded date : UTC 2016-11-25 14:11:29
    Writing application : mkvmerge v9.3.1 ('Mask Machine') 64bit
    Writing library : libebml v1.3.4 + libmatroska v1.4.5
    Video
    ID : 1
    Format : AVC
    Format/Info : Advanced Video Codec
    Format profile : High@L4.1
    Format settings, CABAC : Yes
    Format settings, ReFrames : 4 frames
    Codec ID : V_MPEG4/ISO/AVC
    Duration : 2 h 4 min
    Bit rate : 10.9 Mb/s
    Width : 1 920 pixels
    Height : 816 pixels
    Display aspect ratio : 2.35:1
    Frame rate mode : Constant
    Frame rate : 23.976 (24000/1001) FPS
    Color space : YUV
    Chroma subsampling : 4:2:0
    Bit depth : 8 bits
    Scan type : Progressive
    Bits/(Pixel*Frame) : 0.289
    Stream size : 9.45 GiB (88%)
    Title : The.Dark.Horse.2014.BDRip.1080p-ylnian
    Writing library : x264 core 148 r2638 7599210
    Encoding settings : cabac=1 / ref=4 / deblock=1:-3:-3 / analyse=0x3:0x133 / me=umh / subme=11 / psy=1 / psy_rd=1.05:0.00 / mixed_ref=1 / me_range=48 / chroma_me=1 / trellis=2 / 8x8dct=1 / cqm=0 / deadzone=21,11 / fast_pskip=0 / chroma_qp_offset=-4 / threads=12 / lookahead_threads=3 / sliced_threads=0 / nr=0 / decimate=1 / interlaced=0 / bluray_compat=0 / constrained_intra=0 / bframes=10 / b_pyramid=2 / b_adapt=2 / b_bias=0 / direct=2 / weightb=1 / open_gop=0 / weightp=2 / keyint=240 / keyint_min=23 / scenecut=40 / intra_refresh=0 / rc_lookahead=60 / rc=crf / mbtree=0 / crf=18.0 / qcomp=0.60 / qpmin=0 / qpmax=69 / qpstep=4 / vbv_maxrate=62500 / vbv_bufsize=78125 / crf_max=0.0 / nal_hrd=none / filler=0 / ip_ratio=1.30 / pb_ratio=1.20 / aq=2:0.80
    Language : English
    Default : Yes
    Forced : Yes
    Audio #1
    ID : 2
    Format : DTS
    Format/Info : Digital Theater Systems
    Mode : 16
    Format settings, Endianness : Big
    Codec ID : A_DTS
    Duration : 2 h 4 min
    Bit rate mode : Constant
    Bit rate : 768 kb/s
    Channel(s) : 6 channels
    Channel positions : Front: L C R, Side: L R, LFE
    Sampling rate : 48.0 kHz
    Frame rate : 93.750 FPS (512 spf)
    Bit depth : 16 bits
    Compression mode : Lossy
    Stream size : 684 MiB (6%)
    Title : AVO (DTS 5.1 768 kbps)
    Language : Russian
    Default : Yes
    Forced : Yes
    Audio #2
    ID : 3
    Format : DTS
    Format/Info : Digital Theater Systems
    Mode : 16
    Format settings, Endianness : Big
    Codec ID : A_DTS
    Duration : 2 h 4 min
    Bit rate mode : Constant
    Bit rate : 768 kb/s
    Channel(s) : 6 channels
    Channel positions : Front: L C R, Side: L R, LFE
    Sampling rate : 48.0 kHz
    Frame rate : 93.750 FPS (512 spf)
    Bit depth : 16 bits
    Compression mode : Lossy
    Stream size : 684 MiB (6%)
    Title : DTS 5.1 768 kbps
    Language : English
    Default : No
    Forced : No
    Text
    ID : 4
    Format : UTF-8
    Codec ID : S_TEXT/UTF8
    Codec ID/Info : UTF-8 Plain Text
    Duration : 1 h 55 min
    Bit rate : 47 b/s
    Count of elements : 1335
    Stream size : 40.4 KiB (0%)
    Language : English
    Default : No
    Forced : No
    Menu
    00:00:00.000 : en:00:00:00.000
    00:05:43.927 : en:00:05:43.927
    00:16:27.570 : en:00:16:27.570
    00:28:24.286 : en:00:28:24.286
    00:39:11.599 : en:00:39:11.599
    00:50:05.502 : en:00:50:05.502
    00:57:17.142 : en:00:57:17.142
    01:11:44.133 : en:01:11:44.133
    01:20:26.947 : en:01:20:26.947
    01:28:58.208 : en:01:28:58.208
    01:40:58.427 : en:01:40:58.427
    01:50:49.226 : en:01:50:49.226

    Скриншот c названием фильма

    Скриншоты

    Скачать .torrent

    Скачать торрент-файл бесплатно и на максимальной скорости!

    Как скачивать? · Что такое торрент? · Рейтинг и ограничения

    !ВНИМАНИЕ!
    Сайт не распространяет и не хранит электронные версии произведений, а занимается лишь лишь предоставлением доступа к создаваемому пользователями каталогу ссылок на торрент-файлы, которые содержат только списки хеш-сумм, убедительная просьба с жалобами обращаться напрямую к пользователю. Файлы для обмена на трекере предоставлены пользователями сайта, и администрация не несёт ответственности за их содержание. Просьба не заливать файлы, защищенные авторскими правами, а также файлы нелегального содержания!


    _________________
    [Профиль] [ЛС]
    Показать сообщения:    
    Ответить на тему

    Текущее время: Сегодня, в 16:38

    Часовой пояс: GMT + 2



    Вы не можете начинать темы
    Вы не можете отвечать на сообщения
    Вы не можете редактировать свои сообщения
    Вы не можете удалять свои сообщения
    Вы не можете голосовать в опросах
    Вы не можете прикреплять файлы к сообщениям
    Вы не можете скачивать файлы