BitTorrentTracker PerecTracker.org
BitTorrentTracker PerecTracker.org
    
Регистрация  ·  Вход
 
 · 
Забыли пароль?

  • Тайсон / Tyson (Ули Эдель / Uli Edel) [1995, США, драма, биография, спорт, WEB-DL 1080p] AVO (Михаил Иванов) + Sub Rus, Eng + Original Eng

    Ответить на тему
     
    Автор Сообщение

    Light

    Создавать темы 29-Ноя-2016 21:05

           

    [Цитировать]

    Тайсон / Tyson
    Страна: США
    Студия: HBO Pictures, Edgar J. Scherick Associates
    Жанр: драма, биография, спорт
    Год выпуска: 1995
    Продолжительность: 01:49:55
    Перевод: Авторский (одноголосый закадровый) Михаил Иванов - ненормативная лексика
    Cубтитры: русские полные, английские полные SDH
    Оригинальная аудиодорожка: английский
    Режиссёр: Ули Эдель / Uli Edel
    В ролях: Джордж К. Скотт, Пол Уинфилд, Майкл Джей Уайт, Джеймс Сиккинг, Мальколм-Джамал Уорнер, Тони Ло Бьянко, Кларк Грегг, Холт МакКэллани, Кристен Уилсон, Шила Уиллс.
    Описание: Фильм основан по книге «Огонь и Страх» Хосе Торреса и рассказывает о жизни знаменитого американского чернокожего боксёра Майка Тайсона, начиная с детства и до того печального момента, когда он был приговорён к 6-ти годам тюрьмы за изнасилование девушки, принимавшей участие в конкурсе красоты на звание «Мисс Чёрная Америка». Детство у парня было тяжёлое, у него было 40 приводов в полицию. Огромную роль в его жизни и спортивной карьере сыграл его тренер, усыновивший его после смерти матери.
    Сэмпл: http://multi-up.com/1128308
    Тип релиза: WEB-DL 1080p
    Контейнер: MKV
    Видео: AVC, 1920х1080, 23.976 fps, 9050 kbps
    Аудио 1: Русский AC-3, 2.0, 48 kHz, 192 kbps - AVO Иванов
    Аудио 2: Английский AC-3, 2.0, 48 kHz, 192 kbps - Original
    Формат субтитров: softsub (SRT)

    MediaInfo

    General
    Unique ID : 245140263552428658725511775011989604266 (0xB86C4C2364B494FCAF70D215E403C7AA)
    Complete name : D:\Films\Tyson (1995) WEB-DL 1080p.mkv
    Format : Matroska
    Format version : Version 4 / Version 2
    File size : 7.39 GiB
    Duration : 1h 49mn
    Overall bit rate mode : Variable
    Overall bit rate : 9 625 Kbps
    Encoded date : UTC 2016-11-24 22:29:34
    Writing application : mkvmerge v7.7.0 ('Six Voices') 64bit built on Feb 28 2015 23:39:33
    Writing library : libebml v1.3.1 + libmatroska v1.4.2
    Video
    ID : 1
    Format : AVC
    Format/Info : Advanced Video Codec
    Format profile : High@L4
    Format settings, CABAC : Yes
    Format settings, ReFrames : 4 frames
    Codec ID : V_MPEG4/ISO/AVC
    Duration : 1h 49mn
    Bit rate mode : Variable
    Bit rate : 9 050 Kbps
    Maximum bit rate : 15.0 Mbps
    Width : 1 920 pixels
    Height : 1 080 pixels
    Display aspect ratio : 16:9
    Frame rate mode : Constant
    Frame rate : 23.976 (24000/1001) fps
    Color space : YUV
    Chroma subsampling : 4:2:0
    Bit depth : 8 bits
    Scan type : Progressive
    Bits/(Pixel*Frame) : 0.182
    Stream size : 6.95 GiB (94%)
    Title : Tyson
    Writing library : x264 core 148 r2623 d5b2374
    Encoding settings : cabac=1 / ref=4 / deblock=1:-1:-1 / analyse=0x3:0x133 / me=umh / subme=9 / psy=1 / psy_rd=1.00:0.15 / mixed_ref=1 / me_range=24 / chroma_me=1 / trellis=2 / 8x8dct=1 / cqm=0 / deadzone=21,11 / fast_pskip=1 / chroma_qp_offset=-3 / threads=34 / lookahead_threads=5 / sliced_threads=0 / nr=150 / decimate=1 / interlaced=0 / bluray_compat=0 / constrained_intra=0 / bframes=8 / b_pyramid=2 / b_adapt=2 / b_bias=0 / direct=3 / weightb=1 / open_gop=0 / weightp=2 / keyint=120 / keyint_min=61 / scenecut=0 / intra_refresh=0 / rc_lookahead=120 / rc=crf / mbtree=1 / crf=18.0 / qcomp=0.60 / qpmin=0 / qpmax=69 / qpstep=4 / vbv_maxrate=15000 / vbv_bufsize=31250 / crf_max=0.0 / nal_hrd=vbr / filler=0 / ip_ratio=1.40 / aq=3:1.00
    Default : No
    Forced : Yes
    Color range : Limited
    Color primaries : BT.709
    Transfer characteristics : BT.709
    Matrix coefficients : BT.709
    Audio #1
    ID : 2
    Format : AC-3
    Format/Info : Audio Coding 3
    Mode extension : CM (complete main)
    Format settings, Endianness : Big
    Codec ID : A_AC3
    Duration : 1h 49mn
    Bit rate mode : Constant
    Bit rate : 192 Kbps
    Channel(s) : 2 channels
    Channel positions : Front: L R
    Sampling rate : 48.0 KHz
    Frame rate : 31.250 fps (1536 spf)
    Compression mode : Lossy
    Stream size : 151 MiB (2%)
    Title : AVO Михаил Иванов
    Language : Russian
    Default : Yes
    Forced : No
    Audio #2
    ID : 3
    Format : AC-3
    Format/Info : Audio Coding 3
    Mode extension : CM (complete main)
    Format settings, Endianness : Big
    Codec ID : A_AC3
    Duration : 1h 49mn
    Bit rate mode : Constant
    Bit rate : 192 Kbps
    Channel(s) : 2 channels
    Channel positions : Front: L R
    Sampling rate : 48.0 KHz
    Frame rate : 31.250 fps (1536 spf)
    Compression mode : Lossy
    Stream size : 151 MiB (2%)
    Title : Original
    Language : English
    Default : No
    Forced : No
    Text #1
    ID : 4
    Format : UTF-8
    Codec ID : S_TEXT/UTF8
    Codec ID/Info : UTF-8 Plain Text
    Title : Full
    Language : Russian
    Default : No
    Forced : No
    Text #2
    ID : 5
    Format : UTF-8
    Codec ID : S_TEXT/UTF8
    Codec ID/Info : UTF-8 Plain Text
    Title : Full SDH
    Language : English
    Default : No
    Forced : No

    Скриншоты

    Скачать .torrent

    Скачать торрент-файл бесплатно и на максимальной скорости!

    Как скачивать? · Что такое торрент? · Рейтинг и ограничения

    !ВНИМАНИЕ!
    Сайт не распространяет и не хранит электронные версии произведений, а занимается лишь лишь предоставлением доступа к создаваемому пользователями каталогу ссылок на торрент-файлы, которые содержат только списки хеш-сумм, убедительная просьба с жалобами обращаться напрямую к пользователю. Файлы для обмена на трекере предоставлены пользователями сайта, и администрация не несёт ответственности за их содержание. Просьба не заливать файлы, защищенные авторскими правами, а также файлы нелегального содержания!


    _________________
    [Профиль] [ЛС]
    Показать сообщения:    
    Ответить на тему

    Текущее время: Сегодня, в 14:29

    Часовой пояс: GMT + 2



    Вы не можете начинать темы
    Вы не можете отвечать на сообщения
    Вы не можете редактировать свои сообщения
    Вы не можете удалять свои сообщения
    Вы не можете голосовать в опросах
    Вы не можете прикреплять файлы к сообщениям
    Вы не можете скачивать файлы