BitTorrentTracker PerecTracker.org
BitTorrentTracker PerecTracker.org
    
Регистрация  ·  Вход
 
 · 
Забыли пароль?

  • Ключ от преисподней / Baskin (Кан Эвренол / Can Evrenol) [2015, Турция, США, Ужасы, фэнтези, HDRip] Dub (iTunes)

    Ответить на тему
     
    Автор Сообщение

    Light

    Создавать темы 28-Ноя-2016 20:55

           

    [Цитировать]

    Ключ от преисподней / Baskin
    Страна: Турция, США
    Жанр: Ужасы, фэнтези
    Год выпуска: 2015
    Продолжительность: 01:36:46
    Перевод: Профессиональный (дублированный) iTunes
    Cубтитры: нет
    Режиссер: Кан Эвренол / Can Evrenol
    В ролях: Гокем Касал, Эгун Куючу, Мухаррем Байрак, Фатих Доккёз, Сабахаттин Яакут, Мехмет Черрахоглу, Хаяти Читаклаш, Леман Севда Даричоглу, Тугба Озкул, Аслихан Эргуван
    Описание: Пятеро полицейских, находящихся на ночном дежурстве, отправляются в глухую местность по экстренному вызову. Команда подъезжает к заброшенному зданию и заходит внутрь, чтобы осмотреться. В процессе группа разделяется, однако герои вскоре обнаруживают таинственный и подозрительный склеп. Отважные полицейские спускаются вниз, чтобы проверить это пугающее место. Вскоре выясняется, что герои оказались в самой настоящей кошмарной преисподней, где ужасы поджидают их на каждом углу. Этот полицейский рейд явно не закончится ничем хорошим. Полуразрушенное и, казалось бы, заброшенное задание, на самом деле оказывается Адом, наполненном страшными монстрами. Каждого сотрудника правоохранительных органов в этой обители зла ждет своя судьба. Каждому из них уготованы ужасающие невыносимые пытки за совершенные грехи.
    Сэмпл: http://multi-up.com/1128563
    Качество видео: HDRip
    Формат видео: AVI
    Видео: 720x304 (2.37:1), 24 fps, XviD build 50 ~1632 kbps avg, 0.31 bit/pixel
    Аудио: 48 kHz, AC3 Dolby Digital, 3/2 (L,C,R,l,r) + LFE ch, ~384 kbps

    MediaInfo

    General
    Complete name : E:\Zona Downloads\Klu4.ot.preispodnej.2015.D.HDRip.1400MB.avi
    Format : AVI
    Format/Info : Audio Video Interleave
    File size : 1.37 GiB
    Duration : 1h 36mn
    Overall bit rate : 2 026 Kbps
    Movie name : MoreFilms
    Writing application : VirtualDubMod 1.5.10.2 (build 2540/release)
    Copyright : MoreFilms
    Video
    ID : 0
    Format : MPEG-4 Visual
    Format profile : Advanced Simple@L5
    Format settings, BVOP : 2
    Format settings, QPel : No
    Format settings, GMC : No warppoints
    Format settings, Matrix : Custom
    Codec ID : XVID
    Codec ID/Hint : XviD
    Duration : 1h 36mn
    Bit rate : 1 633 Kbps
    Width : 720 pixels
    Height : 304 pixels
    Display aspect ratio : 2.35:1
    Frame rate : 24.000 fps
    Color space : YUV
    Chroma subsampling : 4:2:0
    Bit depth : 8 bits
    Scan type : Progressive
    Compression mode : Lossy
    Bits/(Pixel*Frame) : 0.311
    Stream size : 1.10 GiB (81%)
    Writing library : XviD 1.2.1 (UTC 2008-12-04)
    Audio
    ID : 1
    Format : AC-3
    Format/Info : Audio Coding 3
    Mode extension : CM (complete main)
    Format settings, Endianness : Big
    Codec ID : 2000
    Duration : 1h 36mn
    Bit rate mode : Constant
    Bit rate : 384 Kbps
    Channel(s) : 6 channels
    Channel positions : Front: L C R, Side: L R, LFE
    Sampling rate : 48.0 KHz
    Bit depth : 16 bits
    Compression mode : Lossy
    Stream size : 265 MiB (19%)
    Alignment : Split accross interleaves
    Interleave, duration : 42 ms (1.00 video frame)
    Interleave, preload duration : 500 ms

    Скриншот c названием фильма

    Скриншоты

    Скачать .torrent

    Скачать торрент-файл бесплатно и на максимальной скорости!

    Как скачивать? · Что такое торрент? · Рейтинг и ограничения

    !ВНИМАНИЕ!
    Сайт не распространяет и не хранит электронные версии произведений, а занимается лишь лишь предоставлением доступа к создаваемому пользователями каталогу ссылок на торрент-файлы, которые содержат только списки хеш-сумм, убедительная просьба с жалобами обращаться напрямую к пользователю. Файлы для обмена на трекере предоставлены пользователями сайта, и администрация не несёт ответственности за их содержание. Просьба не заливать файлы, защищенные авторскими правами, а также файлы нелегального содержания!


    _________________
    [Профиль] [ЛС]
    Показать сообщения:    
    Ответить на тему

    Текущее время: Сегодня, в 00:24

    Часовой пояс: GMT + 2



    Вы не можете начинать темы
    Вы не можете отвечать на сообщения
    Вы не можете редактировать свои сообщения
    Вы не можете удалять свои сообщения
    Вы не можете голосовать в опросах
    Вы не можете прикреплять файлы к сообщениям
    Вы не можете скачивать файлы