BitTorrentTracker PerecTracker.org
BitTorrentTracker PerecTracker.org
    
Регистрация  ·  Вход
 
 · 
Забыли пароль?

  • Голос вещей / El Sonido de las Cosas (Эриель Эскаланте / Ariel Escalante) [2016, Коста-Рика, драма, SATRip] MVO (СВ-Дубль)

    Ответить на тему
     
    Автор Сообщение

    rechyn

    Создавать темы 28-Ноя-2016 20:55

           

    [Цитировать]

    Голос вещей / El Sonido de las Cosas
    Страна: Коста-Рика
    Жанр: драма
    Год выпуска: 2016
    Продолжительность: 01:14:49
    Перевод: Профессиональный (многоголосый закадровый) студия "СВ-Дубль" по заказу "Камер-Тон-Медиа"
    Cубтитры: нет
    Оригинальная аудиодорожка: нет
    Режиссер: Эриель Эскаланте / Ariel Escalante
    В ролях: Liliana Biamonte
    Fernando Bolaños
    Claudia Barrionuevo
    Эриель Эскаланте
    Монтсеррат Монтеро Коул
    Pedro Sánchez
    Valeria Brenes
    Описание: Работая медсестрой, Клаудиа привыкла жить в постоянном напряжении и контролировать свои эмоции. Глядя на нее, трудно предположить, что на самом деле она пребывает в глубокой депрессии, тяжело переживая самоубийство кузины. Однажды в жизни Клаудии появляется старый знакомый, который нуждается в ее помощи и заботе.
    Доп. информация: Рип с канала Культура. Остатки логотипа замазаны.
    Сэмпл: http://multi-up.com/1128573
    Качество видео: SATRip
    Формат видео: AVI
    Видео: MPEG4, XviD, 720x400 (16:9), 25.000 fps, 2 332 Kbps (0.324 bit/pixel)
    Аудио: AC-3, 48.0 KHz, 2 ch, 192 Kbps, CBR

    MediaInfo

    Общее
    Полное имя : M:\Голос вещей.avi
    Формат : AVI
    Формат/Информация : Audio Video Interleave
    Размер файла : 1,32 Гбайт
    Продолжительность : 1 ч. 14 м.
    Общий поток : 2534 Кбит/сек
    Название фильма : Голос вещей / El Sonido de las Cosas (2016)
    Программа кодирования : VirtualDubMod 1.5.10.2 (build 2540/release)
    Библиотека кодирования : VirtualDubMod build 2540/release
    Авторское право : miha2154
    Видео
    Идентификатор : 0
    Формат : MPEG-4 Visual
    Профиль формата : Advanced Simple@L5
    Параметр BVOP формата : Нет
    Параметр QPel формата : Нет
    Параметр GMC формата : Без точки перехода
    Параметр матрицы формата : Выборочная
    Идентификатор кодека : XVID
    Идентификатор кодека/Подсказка : XviD
    Продолжительность : 1 ч. 14 м.
    Битрейт : 2332 Кбит/сек
    Ширина : 720 пикселей
    Высота : 400 пикселей
    Соотношение сторон : 16:9
    Частота кадров : 25,000 кадров/сек
    Цветовое пространство : YUV
    Субдискретизация насыщенности : 4:2:0
    Битовая глубина : 8 бит
    Тип развёртки : Прогрессивная
    Метод сжатия : С потерями
    Бит/(Пиксели*Кадры) : 0.324
    Размер потока : 1,22 Гбайт (92%)
    Библиотека кодирования : XviD 65
    Аудио
    Идентификатор : 1
    Формат : AC-3
    Формат/Информация : Audio Coding 3
    Расширение режима : CM (complete main)
    Параметр Endianness формата : Big
    Идентификатор кодека : 2000
    Продолжительность : 1 ч. 14 м.
    Вид битрейта : Постоянный
    Битрейт : 192 Кбит/сек
    Каналы : 2 канала
    Расположение каналов : Front: L R
    Частота : 48,0 КГц
    Частота кадров : 31,250 кадров/сек (1536 spf)
    Метод сжатия : С потерями
    Размер потока : 103 Мбайт (8%)
    Выравнивание : Разделение по промежуткам
    Продолжительность промежутка : 40 мс. (1,00 видеокадр)
    Время предзагрузки промежутка : 500 мс.
    Заголовок : Профессиональный (многоголосый закадровый) Культура

    Скриншоты


    Скачать .torrent

    Скачать торрент-файл бесплатно и на максимальной скорости!

    Как скачивать? · Что такое торрент? · Рейтинг и ограничения

    !ВНИМАНИЕ!
    Сайт не распространяет и не хранит электронные версии произведений, а занимается лишь лишь предоставлением доступа к создаваемому пользователями каталогу ссылок на торрент-файлы, которые содержат только списки хеш-сумм, убедительная просьба с жалобами обращаться напрямую к пользователю. Файлы для обмена на трекере предоставлены пользователями сайта, и администрация не несёт ответственности за их содержание. Просьба не заливать файлы, защищенные авторскими правами, а также файлы нелегального содержания!


    _________________
    [Профиль] [ЛС]
    Показать сообщения:    
    Ответить на тему

    Текущее время: Сегодня, в 20:07

    Часовой пояс: GMT + 2



    Вы не можете начинать темы
    Вы не можете отвечать на сообщения
    Вы не можете редактировать свои сообщения
    Вы не можете удалять свои сообщения
    Вы не можете голосовать в опросах
    Вы не можете прикреплять файлы к сообщениям
    Вы не можете скачивать файлы