BitTorrentTracker PerecTracker.org
BitTorrentTracker PerecTracker.org
    
Регистрация  ·  Вход
 
 · 
Забыли пароль?

  • Механик: Воскрешение / Mechanic: Resurrection (Дэннис Ганзель / Dennis Gansel) [2016, Франция, США, боевик, триллер, криминал, BDRip] Dub (iTunes)

    Ответить на тему
     
    Автор Сообщение

    rechyn

    Создавать темы 28-Ноя-2016 20:55

           

    [Цитировать]

    Механик: Воскрешение / Mechanic: Resurrection«Four continents. Three kills... Or the love of his life is dead»
    Страна: Франция, США
    Жанр: боевик, триллер, криминал
    Год выпуска: 2016
    Продолжительность: 01:38:38
    Перевод: Профессиональный (полное дублирование) - (iTunes)
    Cубтитры: нет
    Оригинальная аудиодорожка: нет
    Режиссер: Дэннис Ганзель / Dennis Gansel
    В ролях: Джейсон Стэйтем, Джессика Альба, Томми Ли Джонс, Мишель Йео, Наталия Гуслистая, Ейяинг Рхатха Пхонгам, Сэм Хэзелдайн, Джон Ченатьемпо, Райчо Василев, Аарон Брамфилд
    Описание: Артура Бишопа, давно оставившего свое криминальное ремесло, вынуждают снова вступить в игру. Чтобы похитители вернули его возлюбленную, он должен сделать то, что у него получается лучше всего: от него требуется совершить три убийства, идеально обставленных как несчастные случаи.
    Сэмпл: http://multi-up.com/1128616
    Качество видео: BDRip
    Исходник: MECHANIC_RESURRECTION_REMUX_HDCLUB
    Формат видео: AVI
    Видео: 720x304 (2.37:1), 23.976 fps, XviD build 65 ~1725 kbps avg, 0.33 bit/pixel
    Аудио RUS: 48 kHz, AC3 Dolby Digital, 3/2 (L,C,R,l,r) + LFE ch, ~384 kbps
    Rip by Ториял для

    MediaInfo

    Format : AVI
    Format/Info : Audio Video Interleave
    File size : 1.46 GiB
    Duration : 1h 38mn
    Overall bit rate : 2 119 Kbps
    Writing application : VirtualDubMod 1.5.10.3 | www.virtualdub-fr.org || (build 2550/release)
    Writing library : VirtualDubMod build 2550/release
    Video
    ID : 0
    Format : MPEG-4 Visual
    Format profile : Advanced Simple@L5
    Format settings, BVOP : 1
    Format settings, QPel : No
    Format settings, GMC : No warppoints
    Format settings, Matrix : Custom
    Codec ID : XVID
    Codec ID/Hint : XviD
    Duration : 1h 38mn
    Bit rate : 1 726 Kbps
    Width : 720 pixels
    Height : 304 pixels
    Display aspect ratio : 2.35:1
    Frame rate : 23.976 (23976/1000) fps
    Color space : YUV
    Chroma subsampling : 4:2:0
    Bit depth : 8 bits
    Scan type : Progressive
    Compression mode : Lossy
    Bits/(Pixel*Frame) : 0.329
    Stream size : 1.19 GiB (81%)
    Writing library : XviD 65
    Audio
    ID : 1
    Format : AC-3
    Format/Info : Audio Coding 3
    Mode extension : CM (complete main)
    Format settings, Endianness : Big
    Codec ID : 2000
    Duration : 1h 38mn
    Bit rate mode : Constant
    Bit rate : 384 Kbps
    Channel(s) : 6 channels
    Channel positions : Front: L C R, Side: L R, LFE
    Sampling rate : 48.0 KHz
    Frame rate : 31.250 fps (1536 spf)
    Compression mode : Lossy
    Stream size : 271 MiB (18%)
    Alignment : Split accross interleaves
    Interleave, duration : 42 ms (1.00 video frame)
    Interleave, preload duratio : 500 ms

    Скриншоты

    Скачать .torrent

    Скачать торрент-файл бесплатно и на максимальной скорости!

    Как скачивать? · Что такое торрент? · Рейтинг и ограничения

    !ВНИМАНИЕ!
    Сайт не распространяет и не хранит электронные версии произведений, а занимается лишь лишь предоставлением доступа к создаваемому пользователями каталогу ссылок на торрент-файлы, которые содержат только списки хеш-сумм, убедительная просьба с жалобами обращаться напрямую к пользователю. Файлы для обмена на трекере предоставлены пользователями сайта, и администрация не несёт ответственности за их содержание. Просьба не заливать файлы, защищенные авторскими правами, а также файлы нелегального содержания!


    _________________
    [Профиль] [ЛС]
    Показать сообщения:    
    Ответить на тему

    Текущее время: Сегодня, в 18:27

    Часовой пояс: GMT + 2



    Вы не можете начинать темы
    Вы не можете отвечать на сообщения
    Вы не можете редактировать свои сообщения
    Вы не можете удалять свои сообщения
    Вы не можете голосовать в опросах
    Вы не можете прикреплять файлы к сообщениям
    Вы не можете скачивать файлы