BitTorrentTracker PerecTracker.org
BitTorrentTracker PerecTracker.org
    
Регистрация  ·  Вход
 
 · 
Забыли пароль?

  • Приватные (индивидуальные) тренировки. Jayser1337 [2015, покер, вод, poker, vod, Jayser1337, RUS] (Видеоурок)

    Ответить на тему
     
    Автор Сообщение

    Columb

    Создавать темы 28-Ноя-2016 12:43

           

    [Цитировать]

    Приватные (индивидуальные) тренировки. Jayser1337
    Страна: Россия
    Тематика: покер, вод, poker, vod, Jayser1337
    Тип раздаваемого материала: Видеоурок
    Продолжительность: 15:12:02
    Год выпуска: 2015
    Язык: Русский
    Перевод: Не требуется
    Описание:
    Приватные (индивидуальные) тренировки от Jayser1337:
    6 тренировок по 1 часу, ученик NL100, LeakFinder и postflop, октябрь 2015
    6 тренировок по 1 часу, ученик NL100, LeakFinder, preflop и postflop, август 2015
    "весь префлоп", 90 минут, ученик NL100 zoom, preflop, сентябрь 2015

    MediaInfo

    Общее
    Полное имя : (2good4u497_02_август)2.avi
    Формат : AVI
    Формат/Информация : Audio Video Interleave
    Размер файла : 373 Мбайт
    Продолжительность : 1 ч. 5 м.
    Общий поток : 794 Кбит/сек
    Видео
    Идентификатор : 0
    Формат : TechSmith
    Идентификатор кодека : tscc
    Идентификатор кодека/Информация : TechSmith Screen Capture
    Продолжительность : 1 ч. 5 м.
    Битрейт : 663 Кбит/сек
    Ширина : 1920 пикселей
    Высота : 1080 пикселей
    Соотношение сторон : 16:9
    Частота кадров : 10,000 кадров/сек
    Бит/(Пиксели*Кадры) : 0.032
    Размер потока : 312 Мбайт (84%)
    Аудио
    Идентификатор : 1
    Формат : MPEG Audio
    Версия формата : Version 1
    Профиль формата : Layer 3
    Идентификатор кодека : 55
    Идентификатор кодека/Подсказка : MP3
    Продолжительность : 1 ч. 5 м.
    Вид битрейта : Постоянный
    Битрейт : 128 Кбит/сек
    Каналы : 1 канал
    Частота : 48,0 КГц
    Метод сжатия : С потерями
    Размер потока : 60,1 Мбайт (16%)
    Выравнивание : Соединение по промежуткам
    Продолжительность промежутка : 100 мс. (1,00 видеокадр)
    Время предзагрузки промежутка : 120 мс.
    Общее
    Полное имя : (2good4u497_09_август)3.avi
    Формат : AVI
    Формат/Информация : Audio Video Interleave
    Размер файла : 355 Мбайт
    Продолжительность : 1 ч. 4 м.
    Общий поток : 772 Кбит/сек
    Видео
    Идентификатор : 0
    Формат : TechSmith
    Идентификатор кодека : tscc
    Идентификатор кодека/Информация : TechSmith Screen Capture
    Продолжительность : 1 ч. 4 м.
    Битрейт : 641 Кбит/сек
    Ширина : 1920 пикселей
    Высота : 1080 пикселей
    Соотношение сторон : 16:9
    Частота кадров : 10,000 кадров/сек
    Бит/(Пиксели*Кадры) : 0.031
    Размер потока : 295 Мбайт (83%)
    Аудио
    Идентификатор : 1
    Формат : MPEG Audio
    Версия формата : Version 1
    Профиль формата : Layer 3
    Идентификатор кодека : 55
    Идентификатор кодека/Подсказка : MP3
    Продолжительность : 1 ч. 4 м.
    Вид битрейта : Постоянный
    Битрейт : 128 Кбит/сек
    Каналы : 1 канал
    Частота : 48,0 КГц
    Метод сжатия : С потерями
    Размер потока : 58,8 Мбайт (17%)
    Выравнивание : Соединение по промежуткам
    Продолжительность промежутка : 100 мс. (1,00 видеокадр)
    Время предзагрузки промежутка : 120 мс.
    Общее
    Полное имя : (2good4u497_15_август)bb vs bu.flv
    Формат : Flash Video
    Размер файла : 997 Мбайт
    Продолжительность : 1 ч. 7 м.
    Общий поток : 2074 Кбит/сек
    Видео
    Формат : Sorenson Spark
    Идентификатор кодека : 2
    Продолжительность : 1 ч. 7 м.
    Битрейт : 30,4 Мбит/сек
    Ширина : 1920 пикселей
    Высота : 1088 пикселей
    Соотношение сторон : 16:9
    Режим частоты кадров : Постоянный
    Частота кадров : 10,000 кадров/сек
    Битовая глубина : 8 бит
    Бит/(Пиксели*Кадры) : 1.454
    Размер потока : 934 Мбайт (94%)
    Аудио
    Формат : MPEG Audio
    Версия формата : Version 1
    Профиль формата : Layer 3
    Идентификатор кодека : 2
    Идентификатор кодека/Подсказка : MP3
    Продолжительность : 1 ч. 7 м.
    Вид битрейта : Постоянный
    Битрейт : 128 Кбит/сек
    Каналы : 1 канал
    Частота : 48,0 КГц
    Метод сжатия : С потерями
    Размер потока : 61,5 Мбайт (6%)
    Общее
    Полное имя : (2good4u497_20_август)лики по фолдам на сбет терн.flv
    Формат : Flash Video
    Размер файла : 718 Мбайт
    Продолжительность : 1 ч. 1 м.
    Общий поток : 1626 Кбит/сек
    Видео
    Формат : Sorenson Spark
    Идентификатор кодека : 2
    Продолжительность : 1 ч. 1 м.
    Битрейт : 23,4 Мбит/сек
    Ширина : 1920 пикселей
    Высота : 1088 пикселей
    Соотношение сторон : 16:9
    Режим частоты кадров : Постоянный
    Частота кадров : 10,000 кадров/сек
    Битовая глубина : 8 бит
    Бит/(Пиксели*Кадры) : 1.119
    Размер потока : 661 Мбайт (92%)
    Аудио
    Формат : MPEG Audio
    Версия формата : Version 1
    Профиль формата : Layer 3
    Идентификатор кодека : 2
    Идентификатор кодека/Подсказка : MP3
    Продолжительность : 1 ч. 1 м.
    Вид битрейта : Постоянный
    Битрейт : 128 Кбит/сек
    Каналы : 1 канал
    Частота : 48,0 КГц
    Метод сжатия : С потерями
    Размер потока : 56,5 Мбайт (8%)
    Общее
    Полное имя : (2good4u497_23_июль)alexandr_kharkov_leakfinder1%281%29.mp4
    Формат : MPEG-4
    Профиль формата : Base Media
    Идентификатор кодека : isom (isom/iso2/mp41)
    Размер файла : 740 Мбайт
    Продолжительность : 1 ч. 3 м.
    Режим общего битрейта : Постоянный
    Общий поток : 1627 Кбит/сек
    Трек/Положение : 1
    Дата записи : 2016
    Программа кодирования : Lavf56.1.100
    Обложка : Yes
    Примечание : www.dvdvideosoft.com
    Видео
    Идентификатор : 1
    Формат : MPEG-4 Visual
    Профиль формата : Simple@L1
    Параметр BVOP формата : Нет
    Параметр QPel формата : Нет
    Параметр GMC формата : Без точки перехода
    Параметр матрицы формата : Default (H.263)
    Идентификатор кодека : 20
    Продолжительность : 1 ч. 3 м.
    Вид битрейта : Постоянный
    Битрейт : 1494 Кбит/сек
    Ширина : 1920 пикселей
    Высота : 1080 пикселей
    Соотношение сторон : 16:9
    Режим частоты кадров : Постоянный
    Частота кадров : 24,000 кадра/сек
    Цветовое пространство : YUV
    Субдискретизация насыщенности : 4:2:0
    Битовая глубина : 8 бит
    Тип развёртки : Прогрессивная
    Метод сжатия : С потерями
    Бит/(Пиксели*Кадры) : 0.030
    Размер потока : 679 Мбайт (92%)
    Библиотека кодирования : Lavc56.0.101
    Аудио
    Идентификатор : 2
    Формат : AAC
    Формат/Информация : Advanced Audio Codec
    Профиль формата : LC
    Идентификатор кодека : 40
    Продолжительность : 1 ч. 3 м.
    Duration_LastFrame : -4 мс.
    Вид битрейта : Постоянный
    Битрейт : 128 Кбит/сек
    Каналы : 2 канала
    Channel(s)_Original : 1 канал
    Расположение каналов : Front: C
    Частота : 48,0 КГц
    Частота кадров : 46,875 кадров/сек (1024 spf)
    Метод сжатия : С потерями
    Размер потока : 58,2 Мбайт (8%)
    Default : Да
    Alternate group : 1
    Общее
    Полное имя : (2good4u497_28_июль)jayser preflop.mp4
    Формат : MPEG-4
    Профиль формата : Base Media / Version 2
    Идентификатор кодека : mp42 (isom/mp42)
    Размер файла : 134 Мбайт
    Продолжительность : 1 ч. 3 м.
    Режим общего битрейта : Переменный
    Общий поток : 292 Кбит/сек
    Дата кодирования : UTC 2015-07-30 22:10:44
    Дата пометки : UTC 2015-07-30 22:10:44
    Видео
    Идентификатор : 1
    Формат : AVC
    Формат/Информация : Advanced Video Codec
    Профиль формата : Main@L3.1
    Параметр CABAC формата : Да
    Параметр ReFrames формата : 3 кадра
    Идентификатор кодека : avc1
    Идентификатор кодека/Информация : Advanced Video Coding
    Продолжительность : 1 ч. 3 м.
    Битрейт : 164 Кбит/сек
    Ширина : 1280 пикселей
    Высота : 700 пикселей
    Соотношение сторон : 1,85:1
    Режим частоты кадров : Постоянный
    Частота кадров : 30,000 кадров/сек
    Стандарт вещания : NTSC
    Цветовое пространство : YUV
    Субдискретизация насыщенности : 4:2:0
    Битовая глубина : 8 бит
    Тип развёртки : Прогрессивная
    Бит/(Пиксели*Кадры) : 0.006
    Размер потока : 75,0 Мбайт (56%)
    Язык : English
    Дата кодирования : UTC 2015-07-30 22:10:44
    Дата пометки : UTC 2015-07-30 22:10:44
    Цветовой диапазон : Limited
    Аудио
    Идентификатор : 2
    Формат : AAC
    Формат/Информация : Advanced Audio Codec
    Профиль формата : LC
    Идентификатор кодека : 40
    Продолжительность : 1 ч. 3 м.
    Вид битрейта : Переменный
    Битрейт : 126 Кбит/сек
    Максимальный битрейт : 257 Кбит/сек
    Каналы : 2 канала
    Расположение каналов : Front: L R
    Частота : 44,1 КГц
    Частота кадров : 43,066 кадра/сек (1024 spf)
    Метод сжатия : С потерями
    Размер потока : 57,5 Мбайт (43%)
    Язык : English
    Дата кодирования : UTC 2015-07-30 22:10:44
    Дата пометки : UTC 2015-07-30 22:10:44
    Общее
    Полное имя : (oblom555_03_сентябрь)1.2 Video_2015-09-03_180538 вопросы.wmv
    Формат : Windows Media
    Размер файла : 223 Мбайт
    Продолжительность : 1 ч. 12 м.
    Режим общего битрейта : Переменный
    Общий поток : 431 Кбит/сек
    Максимальный общий битрейт : 1842 Кбит/сек
    Дата кодирования : UTC 2015-09-03 13:53:11.130
    Видео
    Идентификатор : 2
    Формат : WMV1
    Идентификатор кодека : WMV1
    Идентификатор кодека/Информация : Windows Media Video 7
    Описание кодека : Windows Media Video V7
    Продолжительность : 1 ч. 12 м.
    Вид битрейта : Переменный
    Битрейт : 330 Кбит/сек
    Ширина : 1920 пикселей
    Высота : 1080 пикселей
    Соотношение сторон : 16:9
    Частота кадров : 10,000 кадров/сек
    Битовая глубина : 8 бит
    Бит/(Пиксели*Кадры) : 0.016
    Размер потока : 171 Мбайт (77%)
    Язык : English (US)
    Аудио
    Идентификатор : 1
    Формат : WMA
    Версия формата : Version 2
    Идентификатор кодека : 161
    Идентификатор кодека/Информация : Windows Media Audio
    Описание кодека : Windows Media Audio 9.2 - 96 kbps, 44 kHz, stereo 1-pass CBR
    Продолжительность : 1 ч. 12 м.
    Вид битрейта : Постоянный
    Битрейт : 96,0 Кбит/сек
    Каналы : 2 канала
    Частота : 44,1 КГц
    Битовая глубина : 16 бит
    Размер потока : 49,6 Мбайт (22%)
    Язык : English (US)
    Общее
    Полное имя : (oblom555_05_октябрь)Video_2015-10-05_140542.wmv
    Формат : Windows Media
    Размер файла : 171 Мбайт
    Продолжительность : 1 ч. 5 м.
    Режим общего битрейта : Переменный
    Общий поток : 362 Кбит/сек
    Максимальный общий битрейт : 1911 Кбит/сек
    Дата кодирования : UTC 2015-10-05 09:59:35.407
    Видео
    Идентификатор : 2
    Формат : WMV1
    Идентификатор кодека : WMV1
    Идентификатор кодека/Информация : Windows Media Video 7
    Описание кодека : Windows Media Video V7
    Продолжительность : 1 ч. 5 м.
    Вид битрейта : Переменный
    Битрейт : 262 Кбит/сек
    Ширина : 1920 пикселей
    Высота : 1080 пикселей
    Соотношение сторон : 16:9
    Частота кадров : 10,000 кадров/сек
    Битовая глубина : 8 бит
    Бит/(Пиксели*Кадры) : 0.013
    Размер потока : 123 Мбайт (72%)
    Язык : English (US)
    Аудио
    Идентификатор : 1
    Формат : WMA
    Версия формата : Version 2
    Идентификатор кодека : 161
    Идентификатор кодека/Информация : Windows Media Audio
    Описание кодека : Windows Media Audio 9.2 - 96 kbps, 44 kHz, stereo 1-pass CBR
    Продолжительность : 1 ч. 5 м.
    Вид битрейта : Постоянный
    Битрейт : 96,0 Кбит/сек
    Каналы : 2 канала
    Частота : 44,1 КГц
    Битовая глубина : 16 бит
    Размер потока : 45,3 Мбайт (27%)
    Язык : English (US)
    Общее
    Полное имя : (oblom555_12_октябрь)Video_2015-10-12_124839.wmv
    Формат : Windows Media
    Размер файла : 154 Мбайт
    Продолжительность : 1 ч. 6 м.
    Режим общего битрейта : Переменный
    Общий поток : 323 Кбит/сек
    Максимальный общий битрейт : 2436 Кбит/сек
    Дата кодирования : UTC 2015-10-12 08:41:51.949
    Видео
    Идентификатор : 2
    Формат : WMV1
    Идентификатор кодека : WMV1
    Идентификатор кодека/Информация : Windows Media Video 7
    Описание кодека : Windows Media Video V7
    Продолжительность : 1 ч. 6 м.
    Вид битрейта : Переменный
    Битрейт : 223 Кбит/сек
    Ширина : 1920 пикселей
    Высота : 1080 пикселей
    Соотношение сторон : 16:9
    Частота кадров : 10,000 кадров/сек
    Битовая глубина : 8 бит
    Бит/(Пиксели*Кадры) : 0.011
    Размер потока : 106 Мбайт (69%)
    Язык : English (US)
    Аудио
    Идентификатор : 1
    Формат : WMA
    Версия формата : Version 2
    Идентификатор кодека : 161
    Идентификатор кодека/Информация : Windows Media Audio
    Описание кодека : Windows Media Audio 9.2 - 96 kbps, 44 kHz, stereo 1-pass CBR
    Продолжительность : 1 ч. 6 м.
    Вид битрейта : Постоянный
    Битрейт : 96,0 Кбит/сек
    Каналы : 2 канала
    Частота : 44,1 КГц
    Битовая глубина : 16 бит
    Размер потока : 45,8 Мбайт (30%)
    Язык : English (US)
    Общее
    Полное имя : (oblom555_19_сентябрь)Dima+Ликфайндер.avi
    Формат : AVI
    Формат/Информация : Audio Video Interleave
    Размер файла : 359 Мбайт
    Продолжительность : 1 ч. 2 м.
    Общий поток : 801 Кбит/сек
    Видео
    Идентификатор : 0
    Формат : TechSmith
    Идентификатор кодека : tscc
    Идентификатор кодека/Информация : TechSmith Screen Capture
    Продолжительность : 1 ч. 2 м.
    Битрейт : 670 Кбит/сек
    Ширина : 1920 пикселей
    Высота : 1080 пикселей
    Соотношение сторон : 16:9
    Частота кадров : 10,000 кадров/сек
    Бит/(Пиксели*Кадры) : 0.032
    Размер потока : 300 Мбайт (84%)
    Аудио
    Идентификатор : 1
    Формат : MPEG Audio
    Версия формата : Version 1
    Профиль формата : Layer 3
    Идентификатор кодека : 55
    Идентификатор кодека/Подсказка : MP3
    Продолжительность : 1 ч. 2 м.
    Вид битрейта : Постоянный
    Битрейт : 128 Кбит/сек
    Каналы : 1 канал
    Частота : 48,0 КГц
    Метод сжатия : С потерями
    Размер потока : 57,4 Мбайт (16%)
    Выравнивание : Соединение по промежуткам
    Продолжительность промежутка : 100 мс. (1,00 видеокадр)
    Время предзагрузки промежутка : 120 мс.
    Общее
    Полное имя : (oblom555_27_сентябрь)1.3+Video_2015-09-27_220437+ПФР+2+бареля.wmv
    Формат : Windows Media
    Размер файла : 232 Мбайт
    Продолжительность : 1 ч. 20 м.
    Режим общего битрейта : Переменный
    Общий поток : 403 Кбит/сек
    Максимальный общий битрейт : 3276 Кбит/сек
    Дата кодирования : UTC 2015-09-27 17:43:46.369
    Видео
    Идентификатор : 2
    Формат : WMV1
    Идентификатор кодека : WMV1
    Идентификатор кодека/Информация : Windows Media Video 7
    Описание кодека : Windows Media Video V7
    Продолжительность : 1 ч. 20 м.
    Вид битрейта : Переменный
    Битрейт : 302 Кбит/сек
    Ширина : 1920 пикселей
    Высота : 1080 пикселей
    Соотношение сторон : 16:9
    Частота кадров : 10,000 кадров/сек
    Битовая глубина : 8 бит
    Бит/(Пиксели*Кадры) : 0.015
    Размер потока : 174 Мбайт (75%)
    Язык : English (US)
    Аудио
    Идентификатор : 1
    Формат : WMA
    Версия формата : Version 2
    Идентификатор кодека : 161
    Идентификатор кодека/Информация : Windows Media Audio
    Описание кодека : Windows Media Audio 9.2 - 96 kbps, 44 kHz, stereo 1-pass CBR
    Продолжительность : 1 ч. 20 м.
    Вид битрейта : Постоянный
    Битрейт : 96,0 Кбит/сек
    Каналы : 2 канала
    Частота : 44,1 КГц
    Битовая глубина : 16 бит
    Размер потока : 55,4 Мбайт (24%)
    Язык : English (US)
    Общее
    Полное имя : (oblom555_30_сентябрь)Video_2015-09-30_142945.wmv
    Формат : Windows Media
    Размер файла : 237 Мбайт
    Продолжительность : 1 ч. 21 м.
    Режим общего битрейта : Переменный
    Общий поток : 409 Кбит/сек
    Максимальный общий битрейт : 2248 Кбит/сек
    Дата кодирования : UTC 2015-09-30 10:08:26.733
    Видео
    Идентификатор : 2
    Формат : WMV1
    Идентификатор кодека : WMV1
    Идентификатор кодека/Информация : Windows Media Video 7
    Описание кодека : Windows Media Video V7
    Продолжительность : 1 ч. 21 м.
    Вид битрейта : Переменный
    Битрейт : 308 Кбит/сек
    Ширина : 1920 пикселей
    Высота : 1080 пикселей
    Соотношение сторон : 16:9
    Частота кадров : 10,000 кадров/сек
    Битовая глубина : 8 бит
    Бит/(Пиксели*Кадры) : 0.015
    Размер потока : 179 Мбайт (75%)
    Язык : English (US)
    Аудио
    Идентификатор : 1
    Формат : WMA
    Версия формата : Version 2
    Идентификатор кодека : 161
    Идентификатор кодека/Информация : Windows Media Audio
    Описание кодека : Windows Media Audio 9.2 - 96 kbps, 44 kHz, stereo 1-pass CBR
    Продолжительность : 1 ч. 21 м.
    Вид битрейта : Постоянный
    Битрейт : 96,0 Кбит/сек
    Каналы : 2 канала
    Частота : 44,1 КГц
    Битовая глубина : 16 бит
    Размер потока : 55,8 Мбайт (24%)
    Язык : English (US)
    Общее
    Полное имя : (Константин Сергиенко_23_сентябрь)Префлоп от Джейсера, качество 33.mp4
    Формат : MPEG-4
    Профиль формата : Base Media / Version 2
    Идентификатор кодека : mp42 (isom/mp42)
    Размер файла : 276 Мбайт
    Продолжительность : 1 ч. 36 м.
    Режим общего битрейта : Переменный
    Общий поток : 401 Кбит/сек
    Дата кодирования : UTC 2015-09-23 18:38:44
    Дата пометки : UTC 2015-09-23 18:38:44
    Видео
    Идентификатор : 1
    Формат : AVC
    Формат/Информация : Advanced Video Codec
    Профиль формата : Baseline@L5
    Параметр CABAC формата : Нет
    Параметр ReFrames формата : 3 кадра
    Идентификатор кодека : avc1
    Идентификатор кодека/Информация : Advanced Video Coding
    Продолжительность : 1 ч. 36 м.
    Продолжительность оригинала : 1 ч. 36 м.
    Битрейт : 273 Кбит/сек
    Ширина : 1920 пикселей
    Высота : 1200 пикселей
    Соотношение сторон : 16:10
    Режим частоты кадров : Постоянный
    Частота кадров : 30,000 кадров/сек
    Стандарт вещания : NTSC
    Цветовое пространство : YUV
    Субдискретизация насыщенности : 4:2:0
    Битовая глубина : 8 бит
    Тип развёртки : Прогрессивная
    Бит/(Пиксели*Кадры) : 0.004
    Размер потока : 187 Мбайт (68%)
    Размер потока оригинала : 187 Мбайт (68%)
    Язык : English
    Дата кодирования : UTC 2015-09-23 18:38:45
    Дата пометки : UTC 2015-09-23 18:38:45
    Цветовой диапазон : Limited
    Аудио
    Идентификатор : 2
    Формат : AAC
    Формат/Информация : Advanced Audio Codec
    Профиль формата : LC
    Идентификатор кодека : 40
    Продолжительность : 1 ч. 36 м.
    Вид битрейта : Переменный
    Битрейт : 126 Кбит/сек
    Максимальный битрейт : 152 Кбит/сек
    Каналы : 2 канала
    Расположение каналов : Front: L R
    Частота : 44,1 КГц
    Частота кадров : 43,066 кадра/сек (1024 spf)
    Метод сжатия : С потерями
    Размер потока : 86,4 Мбайт (31%)
    Язык : English
    Дата кодирования : UTC 2015-09-23 18:38:45
    Дата пометки : UTC 2015-09-23 18:38:45

    Скриншоты

    Скачать .torrent

    Скачать торрент-файл бесплатно и на максимальной скорости!

    Как скачивать? · Что такое торрент? · Рейтинг и ограничения

    !ВНИМАНИЕ!
    Сайт не распространяет и не хранит электронные версии произведений, а занимается лишь лишь предоставлением доступа к создаваемому пользователями каталогу ссылок на торрент-файлы, которые содержат только списки хеш-сумм, убедительная просьба с жалобами обращаться напрямую к пользователю. Файлы для обмена на трекере предоставлены пользователями сайта, и администрация не несёт ответственности за их содержание. Просьба не заливать файлы, защищенные авторскими правами, а также файлы нелегального содержания!

    [Профиль] [ЛС]
    Показать сообщения:    
    Ответить на тему

    Текущее время: Сегодня, в 00:21

    Часовой пояс: GMT + 2



    Вы не можете начинать темы
    Вы не можете отвечать на сообщения
    Вы не можете редактировать свои сообщения
    Вы не можете удалять свои сообщения
    Вы не можете голосовать в опросах
    Вы не можете прикреплять файлы к сообщениям
    Вы не можете скачивать файлы