BitTorrentTracker PerecTracker.org
BitTorrentTracker PerecTracker.org
    
Регистрация  ·  Вход
 
 · 
Забыли пароль?

  • GTO для преуспевающих регуляров (теория). Гэлвин "mbml" Бэй [2016, покер, вод, poker, vod, mbml, RUS] (Видеоурок)

    Ответить на тему
     
    Автор Сообщение

    Columb

    Создавать темы 28-Ноя-2016 12:42

           

    [Цитировать]

    GTO для преуспевающих регуляров (теория). Гэлвин "mbml" Бэй
    Тематика: 2016, покер, вод, poker, vod, mbml, RUS
    Тип раздаваемого материала: Видеоурок
    Продолжительность: 03:34:51
    Год выпуска: 2016
    Язык: Английский
    Перевод: Профессиональный (одноголосый)
    Описание:
    Этот курс посвящен теоретическим аспектам GTO. В нем мы обсуждаем построение оптимальных диапазонов и какую роль в этом играет концепция индифферентности. Когда и как правильно переключаться между эксплуатационной и GTO игрой, как выбирать размеры ставок, как отбирать руки для построения диапазона блефа и блеф-кэтчинга. После просмотра этого курса вы получите отличное представление о том, как теоретические концепты относятся к реальной игре.
    Курс состоит из следующих видео:
    Видео 0. Введение в GTO
    Видео 1. GTO Мышление
    Видео 2. Покерная математика
    Видео 3. Формула для определения оптимального бетсайзинга
    Видео 4. Ограничения для формулы оптимального бетсайзинга
    Видео 5. Мультистрит покер со статичными руками
    Видео 6. Блокеры
    Видео 7. GTO планирование и практика
    Видео 8. GTO при эксплуатации оппонентов

    MediaInfo

    Общее
    Полное имя : _Эпизод 01. Вступление.mp4
    Формат : MPEG-4
    Профиль формата : Base Media
    Идентификатор кодека : isom (isom/iso2/avc1/mp41)
    Размер файла : 32,3 Мбайт
    Продолжительность : 7 м. 5 с.
    Режим общего битрейта : Переменный
    Общий поток : 637 Кбит/сек
    Описание : AverMedia_c285_001.001.004
    Дата кодирования : UTC 2016-04-26 12:15:07
    Дата пометки : UTC 2016-04-26 12:15:07
    Программа кодирования : Lavf52.93.0
    Примечание : Advanced Video Compressor - WinSoftMagic.com
    Видео
    Идентификатор : 1
    Формат : AVC
    Формат/Информация : Advanced Video Codec
    Профиль формата : High@L4
    Параметр CABAC формата : Да
    Параметр ReFrames формата : 3 кадра
    Идентификатор кодека : avc1
    Идентификатор кодека/Информация : Advanced Video Coding
    Продолжительность : 7 м. 5 с.
    Битрейт : 512 Кбит/сек
    Номинальный битрейт : 750 Кбит/сек
    Ширина : 1920 пикселей
    Высота : 1080 пикселей
    Соотношение сторон : 16:9
    Режим частоты кадров : Постоянный
    Частота кадров : 10,000 кадров/сек
    Цветовое пространство : YUV
    Субдискретизация насыщенности : 4:2:0
    Битовая глубина : 8 бит
    Тип развёртки : Прогрессивная
    Бит/(Пиксели*Кадры) : 0.025
    Размер потока : 26,0 Мбайт (80%)
    Библиотека кодирования : x264 core 112
    Настройки программы : cabac=1 / ref=3 / deblock=1:0:0 / analyse=0x3:0x113 / me=hex / subme=7 / psy=1 / psy_rd=1.00:0.00 / mixed_ref=1 / me_range=16 / chroma_me=1 / trellis=1 / 8x8dct=1 / cqm=0 / deadzone=21,11 / fast_pskip=1 / chroma_qp_offset=-2 / threads=3 / sliced_threads=0 / nr=0 / decimate=1 / interlaced=0 / constrained_intra=0 / bframes=3 / b_pyramid=0 / b_adapt=1 / b_bias=0 / direct=1 / weightb=1 / open_gop=0 / weightp=2 / keyint=250 / keyint_min=25 / scenecut=40 / intra_refresh=0 / rc_lookahead=40 / rc=abr / mbtree=1 / bitrate=750 / ratetol=1.0 / qcomp=0.60 / qpmin=10 / qpmax=51 / qpstep=4 / ip_ratio=1.41 / aq=1:1.00
    Дата кодирования : UTC 2016-04-26 12:15:07
    Дата пометки : UTC 2016-04-26 12:15:07
    Аудио
    Идентификатор : 2
    Формат : AAC
    Формат/Информация : Advanced Audio Codec
    Профиль формата : LC
    Идентификатор кодека : 40
    Продолжительность : 7 м. 5 с.
    Вид битрейта : Переменный
    Битрейт : 121 Кбит/сек
    Каналы : 2 канала
    Расположение каналов : Front: L R
    Частота : 48,0 КГц
    Частота кадров : 46,875 кадров/сек (1024 spf)
    Метод сжатия : С потерями
    Размер потока : 6,11 Мбайт (19%)
    Дата кодирования : UTC 2016-04-26 12:15:07
    Дата пометки : UTC 2016-04-26 12:15:07
    Общее
    Полное имя : _Эпизод 02. GTO мышление.mp4
    Формат : MPEG-4
    Профиль формата : Base Media
    Идентификатор кодека : isom (isom/iso2/avc1/mp41)
    Размер файла : 114 Мбайт
    Продолжительность : 18 м.
    Режим общего битрейта : Переменный
    Общий поток : 873 Кбит/сек
    Описание : AverMedia_c285_001.001.004
    Дата кодирования : UTC 2016-04-26 12:15:08
    Дата пометки : UTC 2016-04-26 12:15:08
    Программа кодирования : Lavf52.93.0
    Примечание : Advanced Video Compressor - WinSoftMagic.com
    Видео
    Идентификатор : 1
    Формат : AVC
    Формат/Информация : Advanced Video Codec
    Профиль формата : High@L4
    Параметр CABAC формата : Да
    Параметр ReFrames формата : 3 кадра
    Идентификатор кодека : avc1
    Идентификатор кодека/Информация : Advanced Video Coding
    Продолжительность : 18 м.
    Битрейт : 750 Кбит/сек
    Ширина : 1920 пикселей
    Высота : 1080 пикселей
    Соотношение сторон : 16:9
    Режим частоты кадров : Постоянный
    Частота кадров : 10,000 кадров/сек
    Цветовое пространство : YUV
    Субдискретизация насыщенности : 4:2:0
    Битовая глубина : 8 бит
    Тип развёртки : Прогрессивная
    Бит/(Пиксели*Кадры) : 0.036
    Размер потока : 97,6 Мбайт (86%)
    Библиотека кодирования : x264 core 112
    Настройки программы : cabac=1 / ref=3 / deblock=1:0:0 / analyse=0x3:0x113 / me=hex / subme=7 / psy=1 / psy_rd=1.00:0.00 / mixed_ref=1 / me_range=16 / chroma_me=1 / trellis=1 / 8x8dct=1 / cqm=0 / deadzone=21,11 / fast_pskip=1 / chroma_qp_offset=-2 / threads=3 / sliced_threads=0 / nr=0 / decimate=1 / interlaced=0 / constrained_intra=0 / bframes=3 / b_pyramid=0 / b_adapt=1 / b_bias=0 / direct=1 / weightb=1 / open_gop=0 / weightp=2 / keyint=250 / keyint_min=25 / scenecut=40 / intra_refresh=0 / rc_lookahead=40 / rc=abr / mbtree=1 / bitrate=750 / ratetol=1.0 / qcomp=0.60 / qpmin=10 / qpmax=51 / qpstep=4 / ip_ratio=1.41 / aq=1:1.00
    Дата кодирования : UTC 2016-04-26 12:15:08
    Дата пометки : UTC 2016-04-26 12:15:08
    Аудио
    Идентификатор : 2
    Формат : AAC
    Формат/Информация : Advanced Audio Codec
    Профиль формата : LC
    Идентификатор кодека : 40
    Продолжительность : 18 м.
    Вид битрейта : Переменный
    Битрейт : 119 Кбит/сек
    Каналы : 2 канала
    Расположение каналов : Front: L R
    Частота : 48,0 КГц
    Частота кадров : 46,875 кадров/сек (1024 spf)
    Метод сжатия : С потерями
    Размер потока : 15,6 Мбайт (14%)
    Дата кодирования : UTC 2016-04-26 12:15:08
    Дата пометки : UTC 2016-04-26 12:15:08
    Общее
    Полное имя : _Эпизод 03. Покерная Математика.mp4
    Формат : MPEG-4
    Профиль формата : Base Media
    Идентификатор кодека : isom (isom/iso2/avc1/mp41)
    Размер файла : 156 Мбайт
    Продолжительность : 25 м.
    Режим общего битрейта : Переменный
    Общий поток : 862 Кбит/сек
    Дата кодирования : UTC 2016-04-26 12:15:07
    Дата пометки : UTC 2016-04-26 12:15:07
    Программа кодирования : Lavf52.93.0
    Примечание : Advanced Video Compressor - WinSoftMagic.com
    Видео
    Идентификатор : 1
    Формат : AVC
    Формат/Информация : Advanced Video Codec
    Профиль формата : High@L4
    Параметр CABAC формата : Да
    Параметр ReFrames формата : 3 кадра
    Идентификатор кодека : avc1
    Идентификатор кодека/Информация : Advanced Video Coding
    Продолжительность : 25 м.
    Битрейт : 750 Кбит/сек
    Ширина : 1920 пикселей
    Высота : 1080 пикселей
    Соотношение сторон : 16:9
    Режим частоты кадров : Постоянный
    Частота кадров : 10,000 кадров/сек
    Цветовое пространство : YUV
    Субдискретизация насыщенности : 4:2:0
    Битовая глубина : 8 бит
    Тип развёртки : Прогрессивная
    Бит/(Пиксели*Кадры) : 0.036
    Размер потока : 134 Мбайт (86%)
    Библиотека кодирования : x264 core 112
    Настройки программы : cabac=1 / ref=3 / deblock=1:0:0 / analyse=0x3:0x113 / me=hex / subme=7 / psy=1 / psy_rd=1.00:0.00 / mixed_ref=1 / me_range=16 / chroma_me=1 / trellis=1 / 8x8dct=1 / cqm=0 / deadzone=21,11 / fast_pskip=1 / chroma_qp_offset=-2 / threads=3 / sliced_threads=0 / nr=0 / decimate=1 / interlaced=0 / constrained_intra=0 / bframes=3 / b_pyramid=0 / b_adapt=1 / b_bias=0 / direct=1 / weightb=1 / open_gop=0 / weightp=2 / keyint=250 / keyint_min=25 / scenecut=40 / intra_refresh=0 / rc_lookahead=40 / rc=abr / mbtree=1 / bitrate=750 / ratetol=1.0 / qcomp=0.60 / qpmin=10 / qpmax=51 / qpstep=4 / ip_ratio=1.41 / aq=1:1.00
    Дата кодирования : UTC 2016-04-26 12:15:07
    Дата пометки : UTC 2016-04-26 12:15:07
    Аудио
    Идентификатор : 2
    Формат : AAC
    Формат/Информация : Advanced Audio Codec
    Профиль формата : LC
    Идентификатор кодека : 40
    Продолжительность : 25 м.
    Вид битрейта : Переменный
    Битрейт : 119 Кбит/сек
    Каналы : 2 канала
    Расположение каналов : Front: L R
    Частота : 48,0 КГц
    Частота кадров : 46,875 кадров/сек (1024 spf)
    Метод сжатия : С потерями
    Размер потока : 21,6 Мбайт (14%)
    Дата кодирования : UTC 2016-04-26 12:15:07
    Дата пометки : UTC 2016-04-26 12:15:07
    Общее
    Полное имя : _Эпизод 04. Формула определения оптимального бетсайзинга.mp4
    Формат : MPEG-4
    Профиль формата : Base Media
    Идентификатор кодека : isom (isom/iso2/avc1/mp41)
    Размер файла : 86,5 Мбайт
    Продолжительность : 13 м.
    Режим общего битрейта : Переменный
    Общий поток : 888 Кбит/сек
    Дата кодирования : UTC 2016-04-26 14:27:51
    Дата пометки : UTC 2016-04-26 14:27:51
    Программа кодирования : Lavf51.12.1
    Видео
    Идентификатор : 1
    Формат : AVC
    Формат/Информация : Advanced Video Codec
    Профиль формата : High@L4
    Параметр CABAC формата : Да
    Параметр ReFrames формата : 3 кадра
    Идентификатор кодека : avc1
    Идентификатор кодека/Информация : Advanced Video Coding
    Продолжительность : 13 м.
    Битрейт : 750 Кбит/сек
    Ширина : 1920 пикселей
    Высота : 1080 пикселей
    Соотношение сторон : 16:9
    Режим частоты кадров : Постоянный
    Частота кадров : 10,000 кадров/сек
    Цветовое пространство : YUV
    Субдискретизация насыщенности : 4:2:0
    Битовая глубина : 8 бит
    Тип развёртки : Прогрессивная
    Бит/(Пиксели*Кадры) : 0.036
    Размер потока : 74,4 Мбайт (86%)
    Библиотека кодирования : x264 core 112
    Настройки программы : cabac=1 / ref=3 / deblock=1:0:0 / analyse=0x3:0x113 / me=hex / subme=7 / psy=1 / psy_rd=1.00:0.00 / mixed_ref=1 / me_range=16 / chroma_me=1 / trellis=1 / 8x8dct=1 / cqm=0 / deadzone=21,11 / fast_pskip=1 / chroma_qp_offset=-2 / threads=3 / sliced_threads=0 / nr=0 / decimate=1 / interlaced=0 / constrained_intra=0 / bframes=3 / b_pyramid=0 / b_adapt=1 / b_bias=0 / direct=1 / weightb=1 / open_gop=0 / weightp=2 / keyint=250 / keyint_min=25 / scenecut=40 / intra_refresh=0 / rc_lookahead=40 / rc=abr / mbtree=1 / bitrate=750 / ratetol=1.0 / qcomp=0.60 / qpmin=10 / qpmax=51 / qpstep=4 / ip_ratio=1.41 / aq=1:1.00
    Дата кодирования : UTC 2016-04-26 14:27:51
    Дата пометки : UTC 2016-04-26 14:27:51
    Аудио
    Идентификатор : 2
    Формат : AAC
    Формат/Информация : Advanced Audio Codec
    Профиль формата : LC
    Идентификатор кодека : 40
    Продолжительность : 13 м.
    Вид битрейта : Переменный
    Битрейт : 119 Кбит/сек
    Каналы : 2 канала
    Расположение каналов : Front: L R
    Частота : 48,0 КГц
    Частота кадров : 46,875 кадров/сек (1024 spf)
    Метод сжатия : С потерями
    Размер потока : 11,6 Мбайт (13%)
    Дата кодирования : UTC 2016-04-26 14:27:51
    Дата пометки : UTC 2016-04-26 14:27:51
    Общее
    Полное имя : _Эпизод 05. Ограничения для формулы определения оптимального бетсайзинга.mp4
    Формат : MPEG-4
    Профиль формата : Base Media
    Идентификатор кодека : isom (isom/iso2/avc1/mp41)
    Размер файла : 126 Мбайт
    Продолжительность : 19 м.
    Режим общего битрейта : Переменный
    Общий поток : 899 Кбит/сек
    Описание : AverMedia_c285_001.001.004
    Дата кодирования : UTC 2016-04-26 13:48:18
    Дата пометки : UTC 2016-04-26 13:48:18
    Программа кодирования : Lavf52.93.0
    Примечание : Advanced Video Compressor - WinSoftMagic.com
    Видео
    Идентификатор : 1
    Формат : AVC
    Формат/Информация : Advanced Video Codec
    Профиль формата : High@L4
    Параметр CABAC формата : Да
    Параметр ReFrames формата : 3 кадра
    Идентификатор кодека : avc1
    Идентификатор кодека/Информация : Advanced Video Coding
    Продолжительность : 19 м.
    Битрейт : 750 Кбит/сек
    Ширина : 1920 пикселей
    Высота : 1080 пикселей
    Соотношение сторон : 16:9
    Режим частоты кадров : Постоянный
    Частота кадров : 10,000 кадров/сек
    Цветовое пространство : YUV
    Субдискретизация насыщенности : 4:2:0
    Битовая глубина : 8 бит
    Тип развёртки : Прогрессивная
    Бит/(Пиксели*Кадры) : 0.036
    Размер потока : 109 Мбайт (86%)
    Библиотека кодирования : x264 core 112
    Настройки программы : cabac=1 / ref=3 / deblock=1:0:0 / analyse=0x3:0x113 / me=hex / subme=7 / psy=1 / psy_rd=1.00:0.00 / mixed_ref=1 / me_range=16 / chroma_me=1 / trellis=1 / 8x8dct=1 / cqm=0 / deadzone=21,11 / fast_pskip=1 / chroma_qp_offset=-2 / threads=3 / sliced_threads=0 / nr=0 / decimate=1 / interlaced=0 / constrained_intra=0 / bframes=3 / b_pyramid=0 / b_adapt=1 / b_bias=0 / direct=1 / weightb=1 / open_gop=0 / weightp=2 / keyint=250 / keyint_min=25 / scenecut=40 / intra_refresh=0 / rc_lookahead=40 / rc=abr / mbtree=1 / bitrate=750 / ratetol=1.0 / qcomp=0.60 / qpmin=10 / qpmax=51 / qpstep=4 / ip_ratio=1.41 / aq=1:1.00
    Дата кодирования : UTC 2016-04-26 13:48:18
    Дата пометки : UTC 2016-04-26 13:48:18
    Аудио
    Идентификатор : 2
    Формат : AAC
    Формат/Информация : Advanced Audio Codec
    Профиль формата : LC
    Идентификатор кодека : 40
    Продолжительность : 19 м.
    Вид битрейта : Переменный
    Битрейт : 119 Кбит/сек
    Каналы : 2 канала
    Расположение каналов : Front: L R
    Частота : 48,0 КГц
    Частота кадров : 46,875 кадров/сек (1024 spf)
    Метод сжатия : С потерями
    Размер потока : 16,8 Мбайт (13%)
    Дата кодирования : UTC 2016-04-26 13:48:18
    Дата пометки : UTC 2016-04-26 13:48:18
    Общее
    Полное имя : _Эпизод 06. Мультистрит покер со статичными руками.mp4
    Формат : MPEG-4
    Профиль формата : Base Media
    Идентификатор кодека : isom (isom/iso2/avc1/mp41)
    Размер файла : 150 Мбайт
    Продолжительность : 23 м.
    Режим общего битрейта : Переменный
    Общий поток : 875 Кбит/сек
    Описание : AverMedia_c285_001.001.004
    Дата кодирования : UTC 2016-04-26 13:48:18
    Дата пометки : UTC 2016-04-26 13:48:18
    Программа кодирования : Lavf52.93.0
    Примечание : Advanced Video Compressor - WinSoftMagic.com
    Видео
    Идентификатор : 1
    Формат : AVC
    Формат/Информация : Advanced Video Codec
    Профиль формата : High@L4
    Параметр CABAC формата : Да
    Параметр ReFrames формата : 3 кадра
    Идентификатор кодека : avc1
    Идентификатор кодека/Информация : Advanced Video Coding
    Продолжительность : 23 м.
    Битрейт : 750 Кбит/сек
    Ширина : 1920 пикселей
    Высота : 1080 пикселей
    Соотношение сторон : 16:9
    Режим частоты кадров : Постоянный
    Частота кадров : 10,000 кадров/сек
    Цветовое пространство : YUV
    Субдискретизация насыщенности : 4:2:0
    Битовая глубина : 8 бит
    Тип развёртки : Прогрессивная
    Бит/(Пиксели*Кадры) : 0.036
    Размер потока : 129 Мбайт (86%)
    Библиотека кодирования : x264 core 112
    Настройки программы : cabac=1 / ref=3 / deblock=1:0:0 / analyse=0x3:0x113 / me=hex / subme=7 / psy=1 / psy_rd=1.00:0.00 / mixed_ref=1 / me_range=16 / chroma_me=1 / trellis=1 / 8x8dct=1 / cqm=0 / deadzone=21,11 / fast_pskip=1 / chroma_qp_offset=-2 / threads=3 / sliced_threads=0 / nr=0 / decimate=1 / interlaced=0 / constrained_intra=0 / bframes=3 / b_pyramid=0 / b_adapt=1 / b_bias=0 / direct=1 / weightb=1 / open_gop=0 / weightp=2 / keyint=250 / keyint_min=25 / scenecut=40 / intra_refresh=0 / rc_lookahead=40 / rc=abr / mbtree=1 / bitrate=750 / ratetol=1.0 / qcomp=0.60 / qpmin=10 / qpmax=51 / qpstep=4 / ip_ratio=1.41 / aq=1:1.00
    Дата кодирования : UTC 2016-04-26 13:48:18
    Дата пометки : UTC 2016-04-26 13:48:18
    Аудио
    Идентификатор : 2
    Формат : AAC
    Формат/Информация : Advanced Audio Codec
    Профиль формата : LC
    Идентификатор кодека : 40
    Продолжительность : 23 м.
    Вид битрейта : Переменный
    Битрейт : 119 Кбит/сек
    Каналы : 2 канала
    Расположение каналов : Front: L R
    Частота : 48,0 КГц
    Частота кадров : 46,875 кадров/сек (1024 spf)
    Метод сжатия : С потерями
    Размер потока : 20,3 Мбайт (14%)
    Дата кодирования : UTC 2016-04-26 13:48:18
    Дата пометки : UTC 2016-04-26 13:48:18
    Общее
    Полное имя : _Эпизод 07. Блокеры.mp4
    Формат : MPEG-4
    Профиль формата : Base Media
    Идентификатор кодека : isom (isom/iso2/avc1/mp41)
    Размер файла : 121 Мбайт
    Продолжительность : 19 м.
    Режим общего битрейта : Переменный
    Общий поток : 863 Кбит/сек
    Описание : AverMedia_c285_001.001.004
    Дата кодирования : UTC 2016-04-26 13:48:17
    Дата пометки : UTC 2016-04-26 13:48:17
    Программа кодирования : Lavf52.93.0
    Примечание : Advanced Video Compressor - WinSoftMagic.com
    Видео
    Идентификатор : 1
    Формат : AVC
    Формат/Информация : Advanced Video Codec
    Профиль формата : High@L4
    Параметр CABAC формата : Да
    Параметр ReFrames формата : 3 кадра
    Идентификатор кодека : avc1
    Идентификатор кодека/Информация : Advanced Video Coding
    Продолжительность : 19 м.
    Битрейт : 750 Кбит/сек
    Ширина : 1920 пикселей
    Высота : 1080 пикселей
    Соотношение сторон : 16:9
    Режим частоты кадров : Постоянный
    Частота кадров : 10,000 кадров/сек
    Цветовое пространство : YUV
    Субдискретизация насыщенности : 4:2:0
    Битовая глубина : 8 бит
    Тип развёртки : Прогрессивная
    Бит/(Пиксели*Кадры) : 0.036
    Размер потока : 104 Мбайт (86%)
    Библиотека кодирования : x264 core 112
    Настройки программы : cabac=1 / ref=3 / deblock=1:0:0 / analyse=0x3:0x113 / me=hex / subme=7 / psy=1 / psy_rd=1.00:0.00 / mixed_ref=1 / me_range=16 / chroma_me=1 / trellis=1 / 8x8dct=1 / cqm=0 / deadzone=21,11 / fast_pskip=1 / chroma_qp_offset=-2 / threads=3 / sliced_threads=0 / nr=0 / decimate=1 / interlaced=0 / constrained_intra=0 / bframes=3 / b_pyramid=0 / b_adapt=1 / b_bias=0 / direct=1 / weightb=1 / open_gop=0 / weightp=2 / keyint=250 / keyint_min=25 / scenecut=40 / intra_refresh=0 / rc_lookahead=40 / rc=abr / mbtree=1 / bitrate=750 / ratetol=1.0 / qcomp=0.60 / qpmin=10 / qpmax=51 / qpstep=4 / ip_ratio=1.41 / aq=1:1.00
    Дата кодирования : UTC 2016-04-26 13:48:17
    Дата пометки : UTC 2016-04-26 13:48:17
    Аудио
    Идентификатор : 2
    Формат : AAC
    Формат/Информация : Advanced Audio Codec
    Профиль формата : LC
    Идентификатор кодека : 40
    Продолжительность : 19 м.
    Вид битрейта : Переменный
    Битрейт : 119 Кбит/сек
    Каналы : 2 канала
    Расположение каналов : Front: L R
    Частота : 48,0 КГц
    Частота кадров : 46,875 кадров/сек (1024 spf)
    Метод сжатия : С потерями
    Размер потока : 16,6 Мбайт (14%)
    Дата кодирования : UTC 2016-04-26 13:48:17
    Дата пометки : UTC 2016-04-26 13:48:17
    Общее
    Полное имя : _Эпизод 08. GTO планирование и практика.mp4
    Формат : MPEG-4
    Профиль формата : Base Media
    Идентификатор кодека : isom (isom/iso2/avc1/mp41)
    Размер файла : 317 Мбайт
    Продолжительность : 54 м.
    Режим общего битрейта : Переменный
    Общий поток : 813 Кбит/сек
    Описание : AverMedia_c285_001.001.004
    Дата кодирования : UTC 2016-04-26 15:35:56
    Дата пометки : UTC 2016-04-26 15:35:56
    Программа кодирования : Lavf52.93.0
    Примечание : Advanced Video Compressor - WinSoftMagic.com
    Видео
    Идентификатор : 1
    Формат : AVC
    Формат/Информация : Advanced Video Codec
    Профиль формата : High@L4
    Параметр CABAC формата : Да
    Параметр ReFrames формата : 3 кадра
    Идентификатор кодека : avc1
    Идентификатор кодека/Информация : Advanced Video Coding
    Продолжительность : 54 м.
    Битрейт : 690 Кбит/сек
    Номинальный битрейт : 750 Кбит/сек
    Ширина : 1920 пикселей
    Высота : 1080 пикселей
    Соотношение сторон : 16:9
    Режим частоты кадров : Постоянный
    Частота кадров : 10,000 кадров/сек
    Цветовое пространство : YUV
    Субдискретизация насыщенности : 4:2:0
    Битовая глубина : 8 бит
    Тип развёртки : Прогрессивная
    Бит/(Пиксели*Кадры) : 0.033
    Размер потока : 269 Мбайт (85%)
    Библиотека кодирования : x264 core 112
    Настройки программы : cabac=1 / ref=3 / deblock=1:0:0 / analyse=0x3:0x113 / me=hex / subme=7 / psy=1 / psy_rd=1.00:0.00 / mixed_ref=1 / me_range=16 / chroma_me=1 / trellis=1 / 8x8dct=1 / cqm=0 / deadzone=21,11 / fast_pskip=1 / chroma_qp_offset=-2 / threads=3 / sliced_threads=0 / nr=0 / decimate=1 / interlaced=0 / constrained_intra=0 / bframes=3 / b_pyramid=0 / b_adapt=1 / b_bias=0 / direct=1 / weightb=1 / open_gop=0 / weightp=2 / keyint=250 / keyint_min=25 / scenecut=40 / intra_refresh=0 / rc_lookahead=40 / rc=abr / mbtree=1 / bitrate=750 / ratetol=1.0 / qcomp=0.60 / qpmin=10 / qpmax=51 / qpstep=4 / ip_ratio=1.41 / aq=1:1.00
    Дата кодирования : UTC 2016-04-26 15:35:56
    Дата пометки : UTC 2016-04-26 15:35:56
    Аудио
    Идентификатор : 2
    Формат : AAC
    Формат/Информация : Advanced Audio Codec
    Профиль формата : LC
    Идентификатор кодека : 40
    Продолжительность : 54 м.
    Вид битрейта : Переменный
    Битрейт : 119 Кбит/сек
    Каналы : 2 канала
    Расположение каналов : Front: L R
    Частота : 48,0 КГц
    Частота кадров : 46,875 кадров/сек (1024 spf)
    Метод сжатия : С потерями
    Размер потока : 46,4 Мбайт (15%)
    Дата кодирования : UTC 2016-04-26 15:35:56
    Дата пометки : UTC 2016-04-26 15:35:56
    Общее
    Полное имя : _Эпизод 09. GTO при эксплуатации оппонентов.mp4
    Формат : MPEG-4
    Профиль формата : Base Media
    Идентификатор кодека : isom (isom/iso2/avc1/mp41)
    Размер файла : 205 Мбайт
    Продолжительность : 32 м.
    Режим общего битрейта : Переменный
    Общий поток : 868 Кбит/сек
    Описание : AverMedia_c285_001.001.004
    Дата кодирования : UTC 2016-04-26 15:35:56
    Дата пометки : UTC 2016-04-26 15:35:56
    Программа кодирования : Lavf52.93.0
    Примечание : Advanced Video Compressor - WinSoftMagic.com
    Видео
    Идентификатор : 1
    Формат : AVC
    Формат/Информация : Advanced Video Codec
    Профиль формата : High@L4
    Параметр CABAC формата : Да
    Параметр ReFrames формата : 3 кадра
    Идентификатор кодека : avc1
    Идентификатор кодека/Информация : Advanced Video Coding
    Продолжительность : 32 м.
    Битрейт : 750 Кбит/сек
    Ширина : 1920 пикселей
    Высота : 1080 пикселей
    Соотношение сторон : 16:9
    Режим частоты кадров : Постоянный
    Частота кадров : 10,000 кадров/сек
    Цветовое пространство : YUV
    Субдискретизация насыщенности : 4:2:0
    Битовая глубина : 8 бит
    Тип развёртки : Прогрессивная
    Бит/(Пиксели*Кадры) : 0.036
    Размер потока : 176 Мбайт (86%)
    Библиотека кодирования : x264 core 112
    Настройки программы : cabac=1 / ref=3 / deblock=1:0:0 / analyse=0x3:0x113 / me=hex / subme=7 / psy=1 / psy_rd=1.00:0.00 / mixed_ref=1 / me_range=16 / chroma_me=1 / trellis=1 / 8x8dct=1 / cqm=0 / deadzone=21,11 / fast_pskip=1 / chroma_qp_offset=-2 / threads=3 / sliced_threads=0 / nr=0 / decimate=1 / interlaced=0 / constrained_intra=0 / bframes=3 / b_pyramid=0 / b_adapt=1 / b_bias=0 / direct=1 / weightb=1 / open_gop=0 / weightp=2 / keyint=250 / keyint_min=25 / scenecut=40 / intra_refresh=0 / rc_lookahead=40 / rc=abr / mbtree=1 / bitrate=750 / ratetol=1.0 / qcomp=0.60 / qpmin=10 / qpmax=51 / qpstep=4 / ip_ratio=1.41 / aq=1:1.00
    Дата кодирования : UTC 2016-04-26 15:35:56
    Дата пометки : UTC 2016-04-26 15:35:56
    Аудио
    Идентификатор : 2
    Формат : AAC
    Формат/Информация : Advanced Audio Codec
    Профиль формата : LC
    Идентификатор кодека : 40
    Продолжительность : 32 м.
    Вид битрейта : Переменный
    Битрейт : 119 Кбит/сек
    Каналы : 2 канала
    Расположение каналов : Front: L R
    Частота : 48,0 КГц
    Частота кадров : 46,875 кадров/сек (1024 spf)
    Метод сжатия : С потерями
    Размер потока : 28,0 Мбайт (14%)
    Дата кодирования : UTC 2016-04-26 15:35:56
    Дата пометки : UTC 2016-04-26 15:35:56

    Скриншоты

    Скачать .torrent

    Скачать торрент-файл бесплатно и на максимальной скорости!

    Как скачивать? · Что такое торрент? · Рейтинг и ограничения

    !ВНИМАНИЕ!
    Сайт не распространяет и не хранит электронные версии произведений, а занимается лишь лишь предоставлением доступа к создаваемому пользователями каталогу ссылок на торрент-файлы, которые содержат только списки хеш-сумм, убедительная просьба с жалобами обращаться напрямую к пользователю. Файлы для обмена на трекере предоставлены пользователями сайта, и администрация не несёт ответственности за их содержание. Просьба не заливать файлы, защищенные авторскими правами, а также файлы нелегального содержания!

    [Профиль] [ЛС]
    Показать сообщения:    
    Ответить на тему

    Текущее время: Сегодня, в 18:31

    Часовой пояс: GMT + 2



    Вы не можете начинать темы
    Вы не можете отвечать на сообщения
    Вы не можете редактировать свои сообщения
    Вы не можете удалять свои сообщения
    Вы не можете голосовать в опросах
    Вы не можете прикреплять файлы к сообщениям
    Вы не можете скачивать файлы