BitTorrentTracker PerecTracker.org
BitTorrentTracker PerecTracker.org
    
Регистрация  ·  Вход
 
 · 
Забыли пароль?

  • Микролимиты 2016. Traxa [2016, покер, вод, poker, vod, Traxa, RUS] (Видеоурок)

    Ответить на тему
     
    Автор Сообщение

    Columb

    Создавать темы 28-Ноя-2016 12:42

           

    [Цитировать]

    Микролимиты 2016. Traxa
    Страна: Россия
    Тематика: покер, вод, poker, vod, Traxa
    Тип раздаваемого материала: Видеоурок
    Продолжительность: 07:36:16
    Год выпуска: 2016
    Язык: Русский
    Перевод: Не требуется
    Описание:
    Курс для NL2-NL10 FR/SH/ZOOM.
    Цель курса: поставить ABC игру.
    Курс ставит сильную игру для микролимитов, которая эксплуатирует тенденции поля и формирует правильное покерное мышление.
    Объясняется работа с софтом.

    MediaInfo

    Общее
    Полное имя : Микpoлимиты 2016.mp4
    Формат : MPEG-4
    Профиль формата : Base Media
    Идентификатор кодека : isom (isom/mp42)
    Размер файла : 4,09 Гбайт
    Продолжительность : 7 ч. 36 м.
    Режим общего битрейта : Переменный
    Общий поток : 1282 Кбит/сек
    Дата кодирования : UTC 2016-01-07 14:46:46
    Дата пометки : UTC 2016-01-07 14:46:46
    Программа кодирования : BandiMp4Muxer 1.0
    Видео
    Идентификатор : 1
    Формат : AVC
    Формат/Информация : Advanced Video Codec
    Профиль формата : Main@L4
    Параметр CABAC формата : Да
    Параметр ReFrames формата : 1 кадр
    Идентификатор кодека : avc1
    Идентификатор кодека/Информация : Advanced Video Coding
    Продолжительность : 7 ч. 36 м.
    Продолжительность оригинала : 7 ч. 36 м.
    Битрейт : 1081 Кбит/сек
    Ширина : 1896 пикселей
    Высота : 1080 пикселей
    Соотношение сторон : 16:9
    Режим частоты кадров : Переменный
    Частота кадров : 15,000 кадров/сек
    Минимальная частота кадров : 7,496 кадров/сек
    Максимальная частота кадров : 25,098 кадров/сек
    Цветовое пространство : YUV
    Субдискретизация насыщенности : 4:2:0
    Битовая глубина : 8 бит
    Тип развёртки : Прогрессивная
    Бит/(Пиксели*Кадры) : 0.035
    Размер потока : 3,44 Гбайт (84%)
    Размер потока оригинала : 3,44 Гбайт (84%)
    Язык : English
    Дата кодирования : UTC 2016-01-07 14:46:46
    Дата пометки : UTC 2016-01-07 14:46:46
    mdhd_Duration : 27376824
    Аудио
    Идентификатор : 2
    Формат : AAC
    Формат/Информация : Advanced Audio Codec
    Профиль формата : LC
    Идентификатор кодека : 40
    Продолжительность : 7 ч. 36 м.
    Продолжительность оригинала : 7 ч. 36 м.
    Вид битрейта : Переменный
    Битрейт : 192 Кбит/сек
    Каналы : 2 канала
    Расположение каналов : Front: L R
    Частота : 48,0 КГц
    Частота кадров : 46,875 кадров/сек (1024 spf)
    Метод сжатия : С потерями
    Размер потока : 636 Мбайт (15%)
    Размер потока оригинала : 636 Мбайт (15%)
    Язык : English
    Дата кодирования : UTC 2016-01-07 14:46:46
    Дата пометки : UTC 2016-01-07 14:46:46
    mdhd_Duration : 27376810

    Скриншоты

    Скачать .torrent

    Скачать торрент-файл бесплатно и на максимальной скорости!

    Как скачивать? · Что такое торрент? · Рейтинг и ограничения

    !ВНИМАНИЕ!
    Сайт не распространяет и не хранит электронные версии произведений, а занимается лишь лишь предоставлением доступа к создаваемому пользователями каталогу ссылок на торрент-файлы, которые содержат только списки хеш-сумм, убедительная просьба с жалобами обращаться напрямую к пользователю. Файлы для обмена на трекере предоставлены пользователями сайта, и администрация не несёт ответственности за их содержание. Просьба не заливать файлы, защищенные авторскими правами, а также файлы нелегального содержания!

    [Профиль] [ЛС]
    Показать сообщения:    
    Ответить на тему

    Текущее время: Сегодня, в 18:28

    Часовой пояс: GMT + 2



    Вы не можете начинать темы
    Вы не можете отвечать на сообщения
    Вы не можете редактировать свои сообщения
    Вы не можете удалять свои сообщения
    Вы не можете голосовать в опросах
    Вы не можете прикреплять файлы к сообщениям
    Вы не можете скачивать файлы