BitTorrentTracker PerecTracker.org
BitTorrentTracker PerecTracker.org
    
Регистрация  ·  Вход
 
 · 
Забыли пароль?

  • Crushing mid-stakes in 2016. Inferno [2016, покер, вод, poker, vod, Inferno, RUS] (Видеоурок)

    Ответить на тему
     
    Автор Сообщение

    Columb

    Создавать темы 28-Ноя-2016 12:39

           

    [Цитировать]

    Crushing mid-stakes in 2016. Inferno
    Страна: Россия
    Тематика: покер, вод, poker, vod, Inferno
    Тип раздаваемого материала: Видеоурок
    Продолжительность: 13:21:44
    Год выпуска: 2016
    Язык: Русский
    Перевод: Отсутствует
    Описание: Виталий "Inferno" один из самых востребованных и дорогостоящих тренеров русскоязычного коммьюнити. Стоимость его индивидуальных тренировок доходит до 500$/час, выигрыш за последний год составляет более 100 000$ и винрейт на лимитах вплоть до NL2000 последние несколько лет не падает ниже 5бб/100. Он известен, как специалист по теории оптимальной игры и эксперт по построению защищенных спектров.
    Курс "Crushing mid-stakes in 2016" - это почти 2 месяца еженедельных тренировок, с домашними заданиями после каждого занятия и специальным режимом "Fire".
    Содержание курса из 7 тренировок:
    Теория общей стратегии игры в качестве PFR, разбор оптимальных линий на примере раздач учеников с помощью SimplePostop/PioSolver (на выбор тренера).
    Разбор видео с игрой одного из учеников до NL1000 включительно.
    Теория общей стратегии игры в качестве coldcaller-а, разбор оптимальных линий на примере раздач учеников с помощью SimplePostop/PioSolver (на выбор тренера).
    Новые тенденции игры на блайндах в 2016 году, различные линии розыгрыша на примере раздач тренера с NL1000-NL2000.
    Общая стратегия игры на блайндах в 2016 году, разбор типичных ошибок и оптимальных линий розыгрыша на примере раздач учеников.
    Новые тенденции игры в 3бет потах в 2016 году, а также разбор типичных ошибок и оптимальных линий розыгрыша на примере раздач учеников.
    Теория бетсайзинга, разбор сайзингов от 27% до х2 овербетов, связь бетсайзинга с различными структурами досок и ран-аутами, выбор между усредненным сайзингом и эластичным в рамках общей модели игры.

    MediaInfo

    Общее
    Полное имя : 1-Теория+общей+стратегии+игры+в+качестве+PFR.+Тренировка+от+Виталия+Inferno++Видео++PokerAbility+1.mp4
    Формат : MPEG-4
    Профиль формата : Base Media / Version 2
    Идентификатор кодека : mp42 (mp42/isom)
    Размер файла : 362 Мбайт
    Продолжительность : 2 ч. 4 м.
    Режим общего битрейта : Переменный
    Общий поток : 406 Кбит/сек
    Дата кодирования : UTC 2016-03-27 09:43:19
    Дата пометки : UTC 2016-03-27 09:43:23
    Видео
    Идентификатор : 1
    Формат : AVC
    Формат/Информация : Advanced Video Codec
    Профиль формата : High@L4
    Параметр CABAC формата : Да
    Параметр ReFrames формата : 4 кадра
    Идентификатор кодека : avc1
    Идентификатор кодека/Информация : Advanced Video Coding
    Продолжительность : 2 ч. 4 м.
    Битрейт : 354 Кбит/сек
    Ширина : 1920 пикселей
    Высота : 1080 пикселей
    Соотношение сторон : 16:9
    Режим частоты кадров : Переменный
    Частота кадров : 15,000 кадров/сек
    Минимальная частота кадров : 14,925 кадров/сек
    Максимальная частота кадров : 15,152 кадров/сек
    Цветовое пространство : YUV
    Субдискретизация насыщенности : 4:2:0
    Битовая глубина : 8 бит
    Тип развёртки : Прогрессивная
    Бит/(Пиксели*Кадры) : 0.011
    Размер потока : 315 Мбайт (87%)
    Библиотека кодирования : x264 core 146 r2538 121396c
    Настройки программы : cabac=1 / ref=1 / deblock=1:0:0 / analyse=0x3:0x113 / me=hex / subme=2 / psy=1 / psy_rd=1.00:0.00 / mixed_ref=0 / me_range=16 / chroma_me=1 / trellis=0 / 8x8dct=1 / cqm=0 / deadzone=21,11 / fast_pskip=1 / chroma_qp_offset=0 / threads=12 / lookahead_threads=4 / sliced_threads=0 / nr=0 / decimate=1 / interlaced=0 / bluray_compat=0 / constrained_intra=0 / bframes=3 / b_pyramid=2 / b_adapt=1 / b_bias=0 / direct=1 / weightb=1 / open_gop=0 / weightp=1 / keyint=250 / keyint_min=15 / scenecut=40 / intra_refresh=0 / rc_lookahead=10 / rc=crf / mbtree=1 / crf=24.0 / qcomp=0.60 / qpmin=0 / qpmax=69 / qpstep=4 / vbv_maxrate=1000 / vbv_bufsize=1000 / crf_max=0.0 / nal_hrd=none / filler=0 / ip_ratio=1.40 / aq=1:1.00
    Дата кодирования : UTC 2016-03-27 09:43:19
    Дата пометки : UTC 2016-03-27 09:43:23
    Цветовой диапазон : Limited
    Основные цвета : BT.709
    Характеристики трансфера : sYCC
    Коэффициенты матрицы : BT.709
    Аудио
    Идентификатор : 2
    Формат : AAC
    Формат/Информация : Advanced Audio Codec
    Профиль формата : LC
    Идентификатор кодека : 40
    Продолжительность : 2 ч. 4 м.
    Вид битрейта : Переменный
    Битрейт : 48,0 Кбит/сек
    Каналы : 1 канал
    Расположение каналов : Front: C
    Частота : 48,0 КГц
    Частота кадров : 46,875 кадров/сек (1024 spf)
    Метод сжатия : С потерями
    Размер потока : 42,8 Мбайт (12%)
    Заголовок : Stereo
    Дата кодирования : UTC 2016-03-27 09:43:19
    Дата пометки : UTC 2016-03-27 09:43:23
    Общее
    Полное имя : 2-Разбор+видео+с+игрой+одного+из+учеников.+Тренировка+от+Виталия+Inferno++Видео++PokerAbility (1).mp4
    Формат : MPEG-4
    Профиль формата : Base Media / Version 2
    Идентификатор кодека : mp42 (mp42/isom)
    Размер файла : 241 Мбайт
    Продолжительность : 2 ч. 7 м.
    Режим общего битрейта : Переменный
    Общий поток : 263 Кбит/сек
    Дата кодирования : UTC 2016-04-04 07:39:09
    Дата пометки : UTC 2016-04-04 07:39:11
    Видео
    Идентификатор : 1
    Формат : AVC
    Формат/Информация : Advanced Video Codec
    Профиль формата : High@L4
    Параметр CABAC формата : Да
    Параметр ReFrames формата : 4 кадра
    Идентификатор кодека : avc1
    Идентификатор кодека/Информация : Advanced Video Coding
    Продолжительность : 2 ч. 7 м.
    Битрейт : 180 Кбит/сек
    Ширина : 1920 пикселей
    Высота : 1080 пикселей
    Соотношение сторон : 16:9
    Режим частоты кадров : Переменный
    Частота кадров : 15,000 кадров/сек
    Минимальная частота кадров : 3,003 кадра/сек
    Максимальная частота кадров : 15,152 кадров/сек
    Цветовое пространство : YUV
    Субдискретизация насыщенности : 4:2:0
    Битовая глубина : 8 бит
    Тип развёртки : Прогрессивная
    Бит/(Пиксели*Кадры) : 0.006
    Размер потока : 164 Мбайт (68%)
    Дата кодирования : UTC 2016-04-04 07:39:09
    Дата пометки : UTC 2016-04-04 07:39:11
    Цветовой диапазон : Limited
    Основные цвета : BT.709
    Характеристики трансфера : sYCC
    Коэффициенты матрицы : BT.709
    Аудио
    Идентификатор : 2
    Формат : AAC
    Формат/Информация : Advanced Audio Codec
    Профиль формата : LC
    Идентификатор кодека : 40
    Продолжительность : 2 ч. 7 м.
    Вид битрейта : Переменный
    Битрейт : 79,9 Кбит/сек
    Каналы : 2 канала
    Расположение каналов : Front: L R
    Частота : 48,0 КГц
    Частота кадров : 46,875 кадров/сек (1024 spf)
    Метод сжатия : С потерями
    Размер потока : 73,1 Мбайт (30%)
    Заголовок : Stereo
    Дата кодирования : UTC 2016-04-04 07:39:09
    Дата пометки : UTC 2016-04-04 07:39:11
    Общее
    Полное имя : 3-Теория+общей+стратегии+игры+в+качестве+coldcaller-а.+Тренировка+от+Виталия+Inferno++Видео++PokerAbility.mp4
    Формат : MPEG-4
    Профиль формата : Base Media / Version 2
    Идентификатор кодека : mp42 (mp42/isom)
    Размер файла : 136 Мбайт
    Продолжительность : 1 ч. 44 м.
    Режим общего битрейта : Переменный
    Общий поток : 183 Кбит/сек
    Дата кодирования : UTC 2016-04-22 14:49:53
    Дата пометки : UTC 2016-04-22 14:49:55
    Видео
    Идентификатор : 1
    Формат : AVC
    Формат/Информация : Advanced Video Codec
    Профиль формата : High@L4
    Параметр CABAC формата : Да
    Параметр ReFrames формата : 4 кадра
    Идентификатор кодека : avc1
    Идентификатор кодека/Информация : Advanced Video Coding
    Продолжительность : 1 ч. 44 м.
    Битрейт : 133 Кбит/сек
    Ширина : 1920 пикселей
    Высота : 1080 пикселей
    Соотношение сторон : 16:9
    Режим частоты кадров : Переменный
    Частота кадров : 15,000 кадров/сек
    Минимальная частота кадров : 3,788 кадра/сек
    Максимальная частота кадров : 15,154 кадров/сек
    Цветовое пространство : YUV
    Субдискретизация насыщенности : 4:2:0
    Битовая глубина : 8 бит
    Тип развёртки : Прогрессивная
    Бит/(Пиксели*Кадры) : 0.004
    Размер потока : 98,9 Мбайт (73%)
    Дата кодирования : UTC 2016-04-22 14:49:53
    Дата пометки : UTC 2016-04-22 14:49:55
    Цветовой диапазон : Limited
    Основные цвета : BT.709
    Характеристики трансфера : sYCC
    Коэффициенты матрицы : BT.709
    Аудио
    Идентификатор : 2
    Формат : AAC
    Формат/Информация : Advanced Audio Codec
    Профиль формата : LC
    Идентификатор кодека : 40
    Продолжительность : 1 ч. 44 м.
    Duration_FirstFrame : -6 мс.
    Вид битрейта : Переменный
    Битрейт : 48,0 Кбит/сек
    Каналы : 1 канал
    Расположение каналов : Front: C
    Частота : 48,0 КГц
    Частота кадров : 46,875 кадров/сек (1024 spf)
    Метод сжатия : С потерями
    Размер потока : 35,1 Мбайт (26%)
    Заголовок : Stereo
    Дата кодирования : UTC 2016-04-22 14:49:53
    Дата пометки : UTC 2016-04-22 14:49:55
    Общее
    Полное имя : 4-Новые тенденции игры на блайндах в 2016 году.mp4
    Формат : MPEG-4
    Профиль формата : Base Media
    Идентификатор кодека : isom (isom/iso2/avc1/mp41)
    Размер файла : 244 Мбайт
    Продолжительность : 1 ч. 51 м.
    Общий поток : 305 Кбит/сек
    Дата кодирования : UTC 2016-04-28 16:49:15
    Дата пометки : UTC 2016-04-28 16:49:15
    Программа кодирования : Open Broadcaster Software v0.651b
    Видео
    Идентификатор : 2
    Формат : AVC
    Формат/Информация : Advanced Video Codec
    Профиль формата : High@L4
    Параметр CABAC формата : Да
    Параметр ReFrames формата : 4 кадра
    Режим смешивания : Container profile=High@3.1
    Идентификатор кодека : avc1
    Идентификатор кодека/Информация : Advanced Video Coding
    Продолжительность : 1 ч. 51 м.
    Продолжительность оригинала : 1 ч. 51 м.
    Битрейт : 252 Кбит/сек
    Ширина : 1920 пикселей
    Высота : 1080 пикселей
    Соотношение сторон : 16:9
    Режим частоты кадров : Переменный
    Частота кадров : 15,000 кадров/сек
    Минимальная частота кадров : 14,925 кадров/сек
    Максимальная частота кадров : 15,152 кадров/сек
    Цветовое пространство : YUV
    Субдискретизация насыщенности : 4:2:0
    Битовая глубина : 8 бит
    Тип развёртки : Прогрессивная
    Бит/(Пиксели*Кадры) : 0.008
    Размер потока : 201 Мбайт (83%)
    Размер потока оригинала : 201 Мбайт (83%)
    Библиотека кодирования : x264 core 146 r2538 121396c
    Настройки программы : cabac=1 / ref=1 / deblock=1:0:0 / analyse=0x3:0x113 / me=hex / subme=2 / psy=1 / psy_rd=1.00:0.00 / mixed_ref=0 / me_range=16 / chroma_me=1 / trellis=0 / 8x8dct=1 / cqm=0 / deadzone=21,11 / fast_pskip=1 / chroma_qp_offset=0 / threads=12 / lookahead_threads=4 / sliced_threads=0 / nr=0 / decimate=1 / interlaced=0 / bluray_compat=0 / constrained_intra=0 / bframes=3 / b_pyramid=2 / b_adapt=1 / b_bias=0 / direct=1 / weightb=1 / open_gop=0 / weightp=1 / keyint=250 / keyint_min=15 / scenecut=40 / intra_refresh=0 / rc_lookahead=10 / rc=crf / mbtree=1 / crf=24.0 / qcomp=0.60 / qpmin=0 / qpmax=69 / qpstep=4 / vbv_maxrate=1000 / vbv_bufsize=1000 / crf_max=0.0 / nal_hrd=none / filler=0 / ip_ratio=1.40 / aq=1:1.00
    Дата кодирования : UTC 2016-04-28 16:49:15
    Дата пометки : UTC 2016-04-28 16:49:15
    Цветовой диапазон : Limited
    Основные цвета : BT.709
    Характеристики трансфера : sYCC
    Коэффициенты матрицы : BT.709
    mdhd_Duration : 6706533
    Аудио
    Идентификатор : 1
    Формат : AAC
    Формат/Информация : Advanced Audio Codec
    Профиль формата : LC
    Идентификатор кодека : 40
    Продолжительность : 1 ч. 51 м.
    Продолжительность оригинала : 1 ч. 51 м.
    Вид битрейта : Постоянный
    Номинальный битрейт : 48,0 Кбит/сек
    Каналы : channel0
    Channel(s)_Original : 1 канал
    Расположение каналов : Front: C
    Частота : 48,0 КГц
    Частота кадров : 46,875 кадров/сек (1024 spf)
    Метод сжатия : С потерями
    Размер потока оригинала : 38,2 Мбайт (16%)
    Язык : English
    Дата кодирования : UTC 2016-04-28 16:49:15
    Дата пометки : UTC 2016-04-28 16:49:15
    mdhd_Duration : 6706454
    Общее
    Полное имя : 5Общая стратегия игры на блайндах в 2016.mp4
    Формат : MPEG-4
    Профиль формата : Base Media
    Идентификатор кодека : isom (isom/iso2/avc1/mp41)
    Размер файла : 311 Мбайт
    Продолжительность : 1 ч. 48 м.
    Общий поток : 402 Кбит/сек
    Дата кодирования : UTC 2016-05-05 16:50:24
    Дата пометки : UTC 2016-05-05 16:50:24
    Программа кодирования : Open Broadcaster Software v0.651b
    Видео
    Идентификатор : 2
    Формат : AVC
    Формат/Информация : Advanced Video Codec
    Профиль формата : High@L4
    Параметр CABAC формата : Да
    Параметр ReFrames формата : 4 кадра
    Режим смешивания : Container profile=High@3.1
    Идентификатор кодека : avc1
    Идентификатор кодека/Информация : Advanced Video Coding
    Продолжительность : 1 ч. 48 м.
    Продолжительность оригинала : 1 ч. 48 м.
    Битрейт : 349 Кбит/сек
    Ширина : 1920 пикселей
    Высота : 1080 пикселей
    Соотношение сторон : 16:9
    Режим частоты кадров : Переменный
    Частота кадров : 15,000 кадров/сек
    Минимальная частота кадров : 14,925 кадров/сек
    Максимальная частота кадров : 15,152 кадров/сек
    Цветовое пространство : YUV
    Субдискретизация насыщенности : 4:2:0
    Битовая глубина : 8 бит
    Тип развёртки : Прогрессивная
    Бит/(Пиксели*Кадры) : 0.011
    Размер потока : 270 Мбайт (87%)
    Размер потока оригинала : 270 Мбайт (87%)
    Библиотека кодирования : x264 core 146 r2538 121396c
    Настройки программы : cabac=1 / ref=1 / deblock=1:0:0 / analyse=0x3:0x113 / me=hex / subme=2 / psy=1 / psy_rd=1.00:0.00 / mixed_ref=0 / me_range=16 / chroma_me=1 / trellis=0 / 8x8dct=1 / cqm=0 / deadzone=21,11 / fast_pskip=1 / chroma_qp_offset=0 / threads=12 / lookahead_threads=4 / sliced_threads=0 / nr=0 / decimate=1 / interlaced=0 / bluray_compat=0 / constrained_intra=0 / bframes=3 / b_pyramid=2 / b_adapt=1 / b_bias=0 / direct=1 / weightb=1 / open_gop=0 / weightp=1 / keyint=250 / keyint_min=15 / scenecut=40 / intra_refresh=0 / rc_lookahead=10 / rc=crf / mbtree=1 / crf=24.0 / qcomp=0.60 / qpmin=0 / qpmax=69 / qpstep=4 / vbv_maxrate=1000 / vbv_bufsize=1000 / crf_max=0.0 / nal_hrd=none / filler=0 / ip_ratio=1.40 / aq=1:1.00
    Дата кодирования : UTC 2016-05-05 16:50:24
    Дата пометки : UTC 2016-05-05 16:50:24
    Цветовой диапазон : Limited
    Основные цвета : BT.709
    Характеристики трансфера : sYCC
    Коэффициенты матрицы : BT.709
    mdhd_Duration : 6483933
    Аудио
    Идентификатор : 1
    Формат : AAC
    Формат/Информация : Advanced Audio Codec
    Профиль формата : LC
    Идентификатор кодека : 40
    Продолжительность : 1 ч. 48 м.
    Продолжительность оригинала : 1 ч. 48 м.
    Вид битрейта : Постоянный
    Номинальный битрейт : 48,0 Кбит/сек
    Каналы : channel0
    Channel(s)_Original : 1 канал
    Расположение каналов : Front: C
    Частота : 48,0 КГц
    Частота кадров : 46,875 кадров/сек (1024 spf)
    Метод сжатия : С потерями
    Размер потока оригинала : 37,1 Мбайт (12%)
    Язык : English
    Дата кодирования : UTC 2016-05-05 16:50:24
    Дата пометки : UTC 2016-05-05 16:50:24
    mdhd_Duration : 6483840
    Общее
    Полное имя : Inferno - 6 - Новые тенденции игры в 3бет потах в 2016 году.mp4
    Формат : MPEG-4
    Профиль формата : Base Media
    Идентификатор кодека : isom (isom/iso2/avc1/mp41)
    Размер файла : 173 Мбайт
    Продолжительность : 1 ч. 50 м.
    Общий поток : 219 Кбит/сек
    Дата кодирования : UTC 2016-05-12 17:07:45
    Дата пометки : UTC 2016-05-12 17:07:45
    Программа кодирования : Open Broadcaster Software v0.651b
    Видео
    Идентификатор : 2
    Формат : AVC
    Формат/Информация : Advanced Video Codec
    Профиль формата : High@L4
    Параметр CABAC формата : Да
    Параметр ReFrames формата : 4 кадра
    Режим смешивания : Container profile=High@3.1
    Идентификатор кодека : avc1
    Идентификатор кодека/Информация : Advanced Video Coding
    Продолжительность : 1 ч. 50 м.
    Продолжительность оригинала : 1 ч. 50 м.
    Битрейт : 166 Кбит/сек
    Ширина : 1920 пикселей
    Высота : 1080 пикселей
    Соотношение сторон : 16:9
    Режим частоты кадров : Переменный
    Частота кадров : 15,000 кадров/сек
    Минимальная частота кадров : 14,925 кадров/сек
    Максимальная частота кадров : 15,152 кадров/сек
    Цветовое пространство : YUV
    Субдискретизация насыщенности : 4:2:0
    Битовая глубина : 8 бит
    Тип развёртки : Прогрессивная
    Бит/(Пиксели*Кадры) : 0.005
    Размер потока : 131 Мбайт (76%)
    Размер потока оригинала : 131 Мбайт (76%)
    Библиотека кодирования : x264 core 146 r2538 121396c
    Настройки программы : cabac=1 / ref=1 / deblock=1:0:0 / analyse=0x3:0x113 / me=hex / subme=2 / psy=1 / psy_rd=1.00:0.00 / mixed_ref=0 / me_range=16 / chroma_me=1 / trellis=0 / 8x8dct=1 / cqm=0 / deadzone=21,11 / fast_pskip=1 / chroma_qp_offset=0 / threads=12 / lookahead_threads=4 / sliced_threads=0 / nr=0 / decimate=1 / interlaced=0 / bluray_compat=0 / constrained_intra=0 / bframes=3 / b_pyramid=2 / b_adapt=1 / b_bias=0 / direct=1 / weightb=1 / open_gop=0 / weightp=1 / keyint=250 / keyint_min=15 / scenecut=40 / intra_refresh=0 / rc_lookahead=10 / rc=crf / mbtree=1 / crf=24.0 / qcomp=0.60 / qpmin=0 / qpmax=69 / qpstep=4 / vbv_maxrate=1000 / vbv_bufsize=1000 / crf_max=0.0 / nal_hrd=none / filler=0 / ip_ratio=1.40 / aq=1:1.00
    Дата кодирования : UTC 2016-05-12 17:07:45
    Дата пометки : UTC 2016-05-12 17:07:45
    Цветовой диапазон : Limited
    Основные цвета : BT.709
    Характеристики трансфера : sYCC
    Коэффициенты матрицы : BT.709
    mdhd_Duration : 6634400
    Аудио
    Идентификатор : 1
    Формат : AAC
    Формат/Информация : Advanced Audio Codec
    Профиль формата : LC
    Идентификатор кодека : 40
    Продолжительность : 1 ч. 50 м.
    Продолжительность оригинала : 1 ч. 50 м.
    Вид битрейта : Постоянный
    Номинальный битрейт : 48,0 Кбит/сек
    Каналы : channel0
    Channel(s)_Original : 1 канал
    Расположение каналов : Front: C
    Частота : 48,0 КГц
    Частота кадров : 46,875 кадров/сек (1024 spf)
    Метод сжатия : С потерями
    Размер потока оригинала : 37,9 Мбайт (22%)
    Язык : English
    Дата кодирования : UTC 2016-05-12 17:07:45
    Дата пометки : UTC 2016-05-12 17:07:45
    mdhd_Duration : 6634304
    Общее
    Полное имя : Inferno - 7 - Теория бетсайзинга, разбор сайзингов от 27 до х2 овербетов.mp4
    Формат : MPEG-4
    Профиль формата : Base Media
    Идентификатор кодека : isom (isom/iso2/avc1/mp41)
    Размер файла : 155 Мбайт
    Продолжительность : 1 ч. 54 м.
    Общий поток : 189 Кбит/сек
    Дата кодирования : UTC 2016-05-26 16:53:02
    Дата пометки : UTC 2016-05-26 16:53:02
    Программа кодирования : Open Broadcaster Software v0.651b
    Видео
    Идентификатор : 2
    Формат : AVC
    Формат/Информация : Advanced Video Codec
    Профиль формата : High@L4
    Параметр CABAC формата : Да
    Параметр ReFrames формата : 4 кадра
    Режим смешивания : Container profile=High@3.1
    Идентификатор кодека : avc1
    Идентификатор кодека/Информация : Advanced Video Coding
    Продолжительность : 1 ч. 54 м.
    Продолжительность оригинала : 1 ч. 54 м.
    Битрейт : 136 Кбит/сек
    Ширина : 1920 пикселей
    Высота : 1080 пикселей
    Соотношение сторон : 16:9
    Режим частоты кадров : Переменный
    Частота кадров : 15,000 кадров/сек
    Минимальная частота кадров : 14,925 кадров/сек
    Максимальная частота кадров : 15,152 кадров/сек
    Цветовое пространство : YUV
    Субдискретизация насыщенности : 4:2:0
    Битовая глубина : 8 бит
    Тип развёртки : Прогрессивная
    Бит/(Пиксели*Кадры) : 0.004
    Размер потока : 112 Мбайт (72%)
    Размер потока оригинала : 112 Мбайт (72%)
    Библиотека кодирования : x264 core 146 r2538 121396c
    Настройки программы : cabac=1 / ref=1 / deblock=1:0:0 / analyse=0x3:0x113 / me=hex / subme=2 / psy=1 / psy_rd=1.00:0.00 / mixed_ref=0 / me_range=16 / chroma_me=1 / trellis=0 / 8x8dct=1 / cqm=0 / deadzone=21,11 / fast_pskip=1 / chroma_qp_offset=0 / threads=12 / lookahead_threads=4 / sliced_threads=0 / nr=0 / decimate=1 / interlaced=0 / bluray_compat=0 / constrained_intra=0 / bframes=3 / b_pyramid=2 / b_adapt=1 / b_bias=0 / direct=1 / weightb=1 / open_gop=0 / weightp=1 / keyint=250 / keyint_min=15 / scenecut=40 / intra_refresh=0 / rc_lookahead=10 / rc=crf / mbtree=1 / crf=24.0 / qcomp=0.60 / qpmin=0 / qpmax=69 / qpstep=4 / vbv_maxrate=1000 / vbv_bufsize=1000 / crf_max=0.0 / nal_hrd=none / filler=0 / ip_ratio=1.40 / aq=1:1.00
    Дата кодирования : UTC 2016-05-26 16:53:02
    Дата пометки : UTC 2016-05-26 16:53:02
    Цветовой диапазон : Limited
    Основные цвета : BT.709
    Характеристики трансфера : sYCC
    Коэффициенты матрицы : BT.709
    mdhd_Duration : 6884333
    Аудио
    Идентификатор : 1
    Формат : AAC
    Формат/Информация : Advanced Audio Codec
    Профиль формата : LC
    Идентификатор кодека : 40
    Продолжительность : 1 ч. 54 м.
    Продолжительность оригинала : 1 ч. 54 м.
    Вид битрейта : Постоянный
    Битрейт : 48,0 Кбит/сек
    Каналы : channel0
    Channel(s)_Original : 1 канал
    Расположение каналов : Front: C
    Частота : 48,0 КГц
    Частота кадров : 46,875 кадров/сек (1024 spf)
    Метод сжатия : С потерями
    Размер потока : 39,4 Мбайт (25%)
    Размер потока оригинала : 39,4 Мбайт (25%)
    Язык : English
    Дата кодирования : UTC 2016-05-26 16:53:02
    Дата пометки : UTC 2016-05-26 16:53:02
    mdhd_Duration : 6884246

    Скриншоты

    Скачать .torrent

    Скачать торрент-файл бесплатно и на максимальной скорости!

    Как скачивать? · Что такое торрент? · Рейтинг и ограничения

    !ВНИМАНИЕ!
    Сайт не распространяет и не хранит электронные версии произведений, а занимается лишь лишь предоставлением доступа к создаваемому пользователями каталогу ссылок на торрент-файлы, которые содержат только списки хеш-сумм, убедительная просьба с жалобами обращаться напрямую к пользователю. Файлы для обмена на трекере предоставлены пользователями сайта, и администрация не несёт ответственности за их содержание. Просьба не заливать файлы, защищенные авторскими правами, а также файлы нелегального содержания!

    [Профиль] [ЛС]
    Показать сообщения:    
    Ответить на тему

    Текущее время: Сегодня, в 18:26

    Часовой пояс: GMT + 2



    Вы не можете начинать темы
    Вы не можете отвечать на сообщения
    Вы не можете редактировать свои сообщения
    Вы не можете удалять свои сообщения
    Вы не можете голосовать в опросах
    Вы не можете прикреплять файлы к сообщениям
    Вы не можете скачивать файлы