BitTorrentTracker PerecTracker.org
BitTorrentTracker PerecTracker.org
    
Регистрация  ·  Вход
 
 · 
Забыли пароль?

  • Самый быстрый путь c нл25-50-100 до нл400 [2015, покер, вод, poker, vod, GaltAtlas, RUS] (Видеоурок)

    Ответить на тему
     
    Автор Сообщение

    Columb

    Создавать темы 28-Ноя-2016 12:38

           

    [Цитировать]

    Самый быстрый путь c нл25-50-100 до нл400, GaltAtlas
    Страна: Россия
    Тематика: покер, вод, poker, vod, GaltAtlas
    Тип раздаваемого материала: Видеоурок
    Продолжительность: 5:17:39
    Год выпуска: 2015
    Язык: Русский
    Перевод: Отсутствует
    Описание: Это видео-курс, направленный на скорейшее прохождение пути от нл25-50-100 до нл400.
    У курса четкая структура, никакой воды, каждая тема сфокусирована на прибавку к винрейту. Видео идут поэтапно – от простого к сложному. Большинство инструкций вы сможете применить уже в следующую сессию и получить мгновенную прибавку к винрейту!
    Просмотрев этот курс вы получите подробную дорожную карту роста по лимитам с кратчайшим маршрутом и четкими инструкциями с обоснованием каждого пункта. Вы узнаете ЧТО нужно делать, КАК нужно делать, СКОЛЬКО нужно делать, и ПОЧЕМУ именно это нужно делать.

    Состав курса

    Эпизод 1:
    Манимейкинг vs Буллшиттинг
    Как правильно относиться к покеру
    Мани-мейкинговые действия
    Сила селекта
    Основы солидной игры
    Эпизод 2:
    Стратегия стилов
    Стратегия стилов, с разных позиций
    Правильные настройки HUD, для грамотных стилов
    Супер-линии на SB и BU
    Продвинутый банкролл-менеджмент
    Эпизод 3:
    Защита блайндов
    Влияние блайндов на нашу игру
    Математика защиты и пот-оддсы
    Построение защиты блайндов и ваших спектров
    Наши действия на постфлопе после защиты
    Эпизод 4:
    Защита от рестилов
    Когда действительно надо защищаться
    Математика защиты от рестилов
    Построение спектров защиты
    Наша постфлоп стратегия после защиты
    Эпизод 5:
    Правильные блефы
    Сколько блефовать и с какими руками
    Как эффективно блефовать
    Как выжимать максимум из фишей со средней рукой
    Резюме курса
    Эпизод 6:
    Бонусное видео. Лайф-сессия от автора, где он иллюстрирует игру по своей стратегии, и поясняет ряд моментов. Советы по игре, и реальные примеры.

    MediaInfo

    General
    Полное имя : 1.mp4
    Формат : MPEG-4
    Профиль формата : Base Media
    Идентификатор кодека : isom (isom/iso2/avc1/mp41)
    Размер файла : 245 MiB
    Продолжительность : 54mn 26s
    Общий поток : 630 Kbps
    Описание : AverMedia_c285_001.001.004
    Дата кодирования : UTC 2015-10-24 00:06:13
    Дата пометки : UTC 2015-10-24 00:06:13
    Программа кодирования : Lavf52.93.0
    Примечание : Advanced Video Compressor - WinSoftMagic.com
    Video
    Идентификатор : 1
    Формат : AVC
    Формат/Информация : Advanced Video Codec
    Профиль формата : High@L3.2
    Параметр CABAC формата : Yes
    Параметр ReFrames формата : 3 frames
    Идентификатор кодека : avc1
    Идентификатор кодека/Информация : Advanced Video Coding
    Продолжительность : 54mn 26s
    Битрейт : 500 Kbps
    Ширина : 1 196 pixels
    Высота : 948 pixels
    Соотношение сторон : 5:4
    Режим частоты кадров : Constant
    Частота кадров : 10.000 fps
    Цветовое пространство : YUV
    Субдискретизация насыщенности : 4:2:0
    Битовая глубина : 8 bits
    Тип развёртки : Progressive
    Бит/(Пиксели*Кадры) : 0.044
    Размер потока : 195 MiB (79%)
    Библиотека кодирования : x264 core 112
    Настройки программы : cabac=1 / ref=3 / deblock=1:0:0 / analyse=0x3:0x113 / me=hex / subme=7 / psy=1 / psy_rd=1.00:0.00 / mixed_ref=1 / me_range=16 / chroma_me=1 / trellis=1 / 8x8dct=1 / cqm=0 / deadzone=21,11 / fast_pskip=1 / chroma_qp_offset=-2 / threads=3 / sliced_threads=0 / nr=0 / decimate=1 / interlaced=0 / constrained_intra=0 / bframes=3 / b_pyramid=0 / b_adapt=1 / b_bias=0 / direct=1 / weightb=1 / open_gop=0 / weightp=2 / keyint=250 / keyint_min=25 / scenecut=40 / intra_refresh=0 / rc_lookahead=40 / rc=abr / mbtree=1 / bitrate=500 / ratetol=1.0 / qcomp=0.60 / qpmin=10 / qpmax=51 / qpstep=4 / ip_ratio=1.41 / aq=1:1.00
    Дата кодирования : UTC 2015-10-24 00:06:13
    Дата пометки : UTC 2015-10-24 00:06:13
    Audio
    Идентификатор : 2
    Формат : MPEG Audio
    Версия формата : Version 1
    Профиль формата : Layer 3
    Режим : Joint stereo
    Расширение режима : MS Stereo
    Идентификатор кодека : 6B
    Продолжительность : 54mn 26s
    Вид битрейта : Constant
    Битрейт : 128 Kbps
    Каналы : 2 channels
    Частота : 48.0 KHz
    Метод сжатия : Lossy
    Размер потока : 49.8 MiB (20%)
    Дата кодирования : UTC 2015-10-24 00:06:13
    Дата пометки : UTC 2015-10-24 00:06:13
    General
    Полное имя : 2.mp4
    Формат : MPEG-4
    Профиль формата : Base Media
    Идентификатор кодека : isom (isom/iso2/avc1/mp41)
    Размер файла : 231 MiB
    Продолжительность : 51mn 15s
    Общий поток : 630 Kbps
    Описание : AverMedia_c285_001.001.004
    Дата кодирования : UTC 2015-10-24 09:03:18
    Дата пометки : UTC 2015-10-24 09:03:18
    Программа кодирования : Lavf52.93.0
    Примечание : Advanced Video Compressor - WinSoftMagic.com
    Video
    Идентификатор : 1
    Формат : AVC
    Формат/Информация : Advanced Video Codec
    Профиль формата : High@L3.2
    Параметр CABAC формата : Yes
    Параметр ReFrames формата : 3 frames
    Идентификатор кодека : avc1
    Идентификатор кодека/Информация : Advanced Video Coding
    Продолжительность : 51mn 15s
    Битрейт : 500 Kbps
    Ширина : 1 220 pixels
    Высота : 960 pixels
    Соотношение сторон : 1.271
    Режим частоты кадров : Constant
    Частота кадров : 10.000 fps
    Цветовое пространство : YUV
    Субдискретизация насыщенности : 4:2:0
    Битовая глубина : 8 bits
    Тип развёртки : Progressive
    Бит/(Пиксели*Кадры) : 0.043
    Размер потока : 183 MiB (79%)
    Библиотека кодирования : x264 core 112
    Настройки программы : cabac=1 / ref=3 / deblock=1:0:0 / analyse=0x3:0x113 / me=hex / subme=7 / psy=1 / psy_rd=1.00:0.00 / mixed_ref=1 / me_range=16 / chroma_me=1 / trellis=1 / 8x8dct=1 / cqm=0 / deadzone=21,11 / fast_pskip=1 / chroma_qp_offset=-2 / threads=3 / sliced_threads=0 / nr=0 / decimate=1 / interlaced=0 / constrained_intra=0 / bframes=3 / b_pyramid=0 / b_adapt=1 / b_bias=0 / direct=1 / weightb=1 / open_gop=0 / weightp=2 / keyint=250 / keyint_min=25 / scenecut=40 / intra_refresh=0 / rc_lookahead=40 / rc=abr / mbtree=1 / bitrate=500 / ratetol=1.0 / qcomp=0.60 / qpmin=10 / qpmax=51 / qpstep=4 / ip_ratio=1.41 / aq=1:1.00
    Дата кодирования : UTC 2015-10-24 09:03:18
    Дата пометки : UTC 2015-10-24 09:03:18
    Audio
    Идентификатор : 2
    Формат : MPEG Audio
    Версия формата : Version 1
    Профиль формата : Layer 3
    Режим : Joint stereo
    Расширение режима : MS Stereo
    Идентификатор кодека : 6B
    Продолжительность : 51mn 14s
    Вид битрейта : Constant
    Битрейт : 128 Kbps
    Каналы : 2 channels
    Частота : 48.0 KHz
    Метод сжатия : Lossy
    Размер потока : 46.9 MiB (20%)
    Дата кодирования : UTC 2015-10-24 09:03:18
    Дата пометки : UTC 2015-10-24 09:03:18
    General
    Полное имя : 3.mp4
    Формат : MPEG-4
    Профиль формата : Base Media
    Идентификатор кодека : isom (isom/iso2/avc1/mp41)
    Размер файла : 220 MiB
    Продолжительность : 48mn 45s
    Общий поток : 631 Kbps
    Описание : AverMedia_c285_001.001.004
    Дата кодирования : UTC 2015-10-24 12:50:15
    Дата пометки : UTC 2015-10-24 12:50:15
    Программа кодирования : Lavf52.93.0
    Примечание : Advanced Video Compressor - WinSoftMagic.com
    Video
    Идентификатор : 1
    Формат : AVC
    Формат/Информация : Advanced Video Codec
    Профиль формата : High@L3.2
    Параметр CABAC формата : Yes
    Параметр ReFrames формата : 3 frames
    Идентификатор кодека : avc1
    Идентификатор кодека/Информация : Advanced Video Coding
    Продолжительность : 48mn 45s
    Битрейт : 500 Kbps
    Ширина : 1 204 pixels
    Высота : 956 pixels
    Соотношение сторон : 5:4
    Режим частоты кадров : Constant
    Частота кадров : 10.000 fps
    Цветовое пространство : YUV
    Субдискретизация насыщенности : 4:2:0
    Битовая глубина : 8 bits
    Тип развёртки : Progressive
    Бит/(Пиксели*Кадры) : 0.043
    Размер потока : 175 MiB (79%)
    Библиотека кодирования : x264 core 112
    Настройки программы : cabac=1 / ref=3 / deblock=1:0:0 / analyse=0x3:0x113 / me=hex / subme=7 / psy=1 / psy_rd=1.00:0.00 / mixed_ref=1 / me_range=16 / chroma_me=1 / trellis=1 / 8x8dct=1 / cqm=0 / deadzone=21,11 / fast_pskip=1 / chroma_qp_offset=-2 / threads=3 / sliced_threads=0 / nr=0 / decimate=1 / interlaced=0 / constrained_intra=0 / bframes=3 / b_pyramid=0 / b_adapt=1 / b_bias=0 / direct=1 / weightb=1 / open_gop=0 / weightp=2 / keyint=250 / keyint_min=25 / scenecut=40 / intra_refresh=0 / rc_lookahead=40 / rc=abr / mbtree=1 / bitrate=500 / ratetol=1.0 / qcomp=0.60 / qpmin=10 / qpmax=51 / qpstep=4 / ip_ratio=1.41 / aq=1:1.00
    Дата кодирования : UTC 2015-10-24 12:50:15
    Дата пометки : UTC 2015-10-24 12:50:15
    Audio
    Идентификатор : 2
    Формат : MPEG Audio
    Версия формата : Version 1
    Профиль формата : Layer 3
    Режим : Joint stereo
    Расширение режима : MS Stereo
    Идентификатор кодека : 6B
    Продолжительность : 48mn 45s
    Вид битрейта : Constant
    Битрейт : 128 Kbps
    Каналы : 2 channels
    Частота : 48.0 KHz
    Метод сжатия : Lossy
    Размер потока : 44.6 MiB (20%)
    Дата кодирования : UTC 2015-10-24 12:50:15
    Дата пометки : UTC 2015-10-24 12:50:15
    General
    Полное имя : 4.mp4
    Формат : MPEG-4
    Профиль формата : Base Media
    Идентификатор кодека : isom (isom/iso2/avc1/mp41)
    Размер файла : 251 MiB
    Продолжительность : 56mn 0s
    Общий поток : 627 Kbps
    Описание : AverMedia_c285_001.001.004
    Дата кодирования : UTC 2015-10-24 13:50:38
    Дата пометки : UTC 2015-10-24 13:50:38
    Программа кодирования : Lavf52.93.0
    Примечание : Advanced Video Compressor - WinSoftMagic.com
    Video
    Идентификатор : 1
    Формат : AVC
    Формат/Информация : Advanced Video Codec
    Профиль формата : High@L3.2
    Параметр CABAC формата : Yes
    Параметр ReFrames формата : 3 frames
    Идентификатор кодека : avc1
    Идентификатор кодека/Информация : Advanced Video Coding
    Продолжительность : 56mn 0s
    Битрейт : 500 Kbps
    Ширина : 1 204 pixels
    Высота : 948 pixels
    Соотношение сторон : 1.270
    Режим частоты кадров : Constant
    Частота кадров : 10.000 fps
    Цветовое пространство : YUV
    Субдискретизация насыщенности : 4:2:0
    Битовая глубина : 8 bits
    Тип развёртки : Progressive
    Бит/(Пиксели*Кадры) : 0.044
    Размер потока : 199 MiB (79%)
    Библиотека кодирования : x264 core 112
    Настройки программы : cabac=1 / ref=3 / deblock=1:0:0 / analyse=0x3:0x113 / me=hex / subme=7 / psy=1 / psy_rd=1.00:0.00 / mixed_ref=1 / me_range=16 / chroma_me=1 / trellis=1 / 8x8dct=1 / cqm=0 / deadzone=21,11 / fast_pskip=1 / chroma_qp_offset=-2 / threads=3 / sliced_threads=0 / nr=0 / decimate=1 / interlaced=0 / constrained_intra=0 / bframes=3 / b_pyramid=0 / b_adapt=1 / b_bias=0 / direct=1 / weightb=1 / open_gop=0 / weightp=2 / keyint=250 / keyint_min=25 / scenecut=40 / intra_refresh=0 / rc_lookahead=40 / rc=abr / mbtree=1 / bitrate=500 / ratetol=1.0 / qcomp=0.60 / qpmin=10 / qpmax=51 / qpstep=4 / ip_ratio=1.41 / aq=1:1.00
    Дата кодирования : UTC 2015-10-24 13:50:38
    Дата пометки : UTC 2015-10-24 13:50:38
    Audio
    Идентификатор : 2
    Формат : MPEG Audio
    Версия формата : Version 1
    Профиль формата : Layer 3
    Режим : Joint stereo
    Расширение режима : MS Stereo
    Идентификатор кодека : 6B
    Продолжительность : 56mn 0s
    Вид битрейта : Constant
    Битрейт : 128 Kbps
    Каналы : 2 channels
    Частота : 48.0 KHz
    Метод сжатия : Lossy
    Размер потока : 51.3 MiB (20%)
    Дата кодирования : UTC 2015-10-24 13:50:38
    Дата пометки : UTC 2015-10-24 13:50:38
    General
    Полное имя : 5.mp4
    Формат : MPEG-4
    Профиль формата : Base Media
    Идентификатор кодека : isom (isom/iso2/avc1/mp41)
    Размер файла : 191 MiB
    Продолжительность : 42mn 15s
    Общий поток : 630 Kbps
    Описание : AverMedia_c285_001.001.004
    Дата кодирования : UTC 2015-10-24 15:02:36
    Дата пометки : UTC 2015-10-24 15:02:36
    Программа кодирования : Lavf52.93.0
    Примечание : Advanced Video Compressor - WinSoftMagic.com
    Video
    Идентификатор : 1
    Формат : AVC
    Формат/Информация : Advanced Video Codec
    Профиль формата : High@L3.2
    Параметр CABAC формата : Yes
    Параметр ReFrames формата : 3 frames
    Идентификатор кодека : avc1
    Идентификатор кодека/Информация : Advanced Video Coding
    Продолжительность : 42mn 15s
    Битрейт : 500 Kbps
    Ширина : 1 188 pixels
    Высота : 942 pixels
    Соотношение сторон : 5:4
    Режим частоты кадров : Constant
    Частота кадров : 10.000 fps
    Цветовое пространство : YUV
    Субдискретизация насыщенности : 4:2:0
    Битовая глубина : 8 bits
    Тип развёртки : Progressive
    Бит/(Пиксели*Кадры) : 0.045
    Размер потока : 151 MiB (79%)
    Библиотека кодирования : x264 core 112
    Настройки программы : cabac=1 / ref=3 / deblock=1:0:0 / analyse=0x3:0x113 / me=hex / subme=7 / psy=1 / psy_rd=1.00:0.00 / mixed_ref=1 / me_range=16 / chroma_me=1 / trellis=1 / 8x8dct=1 / cqm=0 / deadzone=21,11 / fast_pskip=1 / chroma_qp_offset=-2 / threads=3 / sliced_threads=0 / nr=0 / decimate=1 / interlaced=0 / constrained_intra=0 / bframes=3 / b_pyramid=0 / b_adapt=1 / b_bias=0 / direct=1 / weightb=1 / open_gop=0 / weightp=2 / keyint=250 / keyint_min=25 / scenecut=40 / intra_refresh=0 / rc_lookahead=40 / rc=abr / mbtree=1 / bitrate=500 / ratetol=1.0 / qcomp=0.60 / qpmin=10 / qpmax=51 / qpstep=4 / ip_ratio=1.41 / aq=1:1.00
    Дата кодирования : UTC 2015-10-24 15:02:36
    Дата пометки : UTC 2015-10-24 15:02:36
    Audio
    Идентификатор : 2
    Формат : MPEG Audio
    Версия формата : Version 1
    Профиль формата : Layer 3
    Режим : Joint stereo
    Расширение режима : MS Stereo
    Идентификатор кодека : 6B
    Продолжительность : 42mn 14s
    Вид битрейта : Constant
    Битрейт : 128 Kbps
    Каналы : 2 channels
    Частота : 48.0 KHz
    Метод сжатия : Lossy
    Размер потока : 38.7 MiB (20%)
    Дата кодирования : UTC 2015-10-24 15:02:36
    Дата пометки : UTC 2015-10-24 15:02:36
    General
    Полное имя : Bonus.mp4
    Формат : MPEG-4
    Профиль формата : Base Media
    Идентификатор кодека : isom (isom/iso2/avc1/mp41)
    Размер файла : 292 MiB
    Продолжительность : 1h 4mn
    Общий поток : 628 Kbps
    Описание : AverMedia_c285_001.001.004
    Дата кодирования : UTC 2015-10-24 15:56:35
    Дата пометки : UTC 2015-10-24 15:56:35
    Программа кодирования : Lavf52.93.0
    Примечание : Advanced Video Compressor - WinSoftMagic.com
    Video
    Идентификатор : 1
    Формат : AVC
    Формат/Информация : Advanced Video Codec
    Профиль формата : High@L4
    Параметр CABAC формата : Yes
    Параметр ReFrames формата : 3 frames
    Идентификатор кодека : avc1
    Идентификатор кодека/Информация : Advanced Video Coding
    Продолжительность : 1h 4mn
    Битрейт : 500 Kbps
    Ширина : 1 920 pixels
    Высота : 1 080 pixels
    Соотношение сторон : 16:9
    Режим частоты кадров : Constant
    Частота кадров : 10.000 fps
    Цветовое пространство : YUV
    Субдискретизация насыщенности : 4:2:0
    Битовая глубина : 8 bits
    Тип развёртки : Progressive
    Бит/(Пиксели*Кадры) : 0.024
    Размер потока : 231 MiB (79%)
    Библиотека кодирования : x264 core 112
    Настройки программы : cabac=1 / ref=3 / deblock=1:0:0 / analyse=0x3:0x113 / me=hex / subme=7 / psy=1 / psy_rd=1.00:0.00 / mixed_ref=1 / me_range=16 / chroma_me=1 / trellis=1 / 8x8dct=1 / cqm=0 / deadzone=21,11 / fast_pskip=1 / chroma_qp_offset=-2 / threads=3 / sliced_threads=0 / nr=0 / decimate=1 / interlaced=0 / constrained_intra=0 / bframes=3 / b_pyramid=0 / b_adapt=1 / b_bias=0 / direct=1 / weightb=1 / open_gop=0 / weightp=2 / keyint=250 / keyint_min=25 / scenecut=40 / intra_refresh=0 / rc_lookahead=40 / rc=abr / mbtree=1 / bitrate=500 / ratetol=1.0 / qcomp=0.60 / qpmin=10 / qpmax=51 / qpstep=4 / ip_ratio=1.41 / aq=1:1.00
    Дата кодирования : UTC 2015-10-24 15:56:35
    Дата пометки : UTC 2015-10-24 15:56:35
    Audio
    Идентификатор : 2
    Формат : MPEG Audio
    Версия формата : Version 1
    Профиль формата : Layer 3
    Режим : Joint stereo
    Идентификатор кодека : 6B
    Продолжительность : 1h 4mn
    Вид битрейта : Constant
    Битрейт : 128 Kbps
    Каналы : 2 channels
    Частота : 48.0 KHz
    Метод сжатия : Lossy
    Размер потока : 59.5 MiB (20%)
    Дата кодирования : UTC 2015-10-24 15:56:35
    Дата пометки : UTC 2015-10-24 15:56:35
    General
    Полное имя : txt.txt
    Размер файла : 22.0 KiB

    Скриншоты

    Скачать .torrent

    Скачать торрент-файл бесплатно и на максимальной скорости!

    Как скачивать? · Что такое торрент? · Рейтинг и ограничения

    !ВНИМАНИЕ!
    Сайт не распространяет и не хранит электронные версии произведений, а занимается лишь лишь предоставлением доступа к создаваемому пользователями каталогу ссылок на торрент-файлы, которые содержат только списки хеш-сумм, убедительная просьба с жалобами обращаться напрямую к пользователю. Файлы для обмена на трекере предоставлены пользователями сайта, и администрация не несёт ответственности за их содержание. Просьба не заливать файлы, защищенные авторскими правами, а также файлы нелегального содержания!

    [Профиль] [ЛС]
    Показать сообщения:    
    Ответить на тему

    Текущее время: Сегодня, в 14:26

    Часовой пояс: GMT + 2



    Вы не можете начинать темы
    Вы не можете отвечать на сообщения
    Вы не можете редактировать свои сообщения
    Вы не можете удалять свои сообщения
    Вы не можете голосовать в опросах
    Вы не можете прикреплять файлы к сообщениям
    Вы не можете скачивать файлы