BitTorrentTracker PerecTracker.org
BitTorrentTracker PerecTracker.org
    
Регистрация  ·  Вход
 
 · 
Забыли пароль?

  • Слияние двух лун / Two Moon Junction (Залман Кинг / Zalman King) [1988, США, драма, мелодрама, BDRip 720p] MVO + 3x DVO + AVO + VO + Sub Eng + Original Eng

    Ответить на тему
     
    Автор Сообщение

    Light

    Создавать темы 27-Ноя-2016 20:55

           

    [Цитировать]

    Слияние двух лун / Two Moon Junction
    Страна: США
    Студия: DDM Film Corporation, Lorimar Motion Pictures, Planet Productions
    Жанр: драма, мелодрама
    Год выпуска: 1988
    Продолжительность: 01:45:02--Перевод 1: Профессиональный (двухголосный закадровый) НТВ+
    Перевод 2: Профессиональный (многоголосный закадровый) СВ Дубль
    Перевод 3: Профессиональный (двухголосный закадровый) Екатеринбург Арт
    Перевод 4: Профессиональный (двухголосный закадровый) Сергей Визгунов и Нина
    Перевод 5: Авторский (одноголосы закадровый) Алексей Медведев
    Перевод 6: Любительский (одноголосный закадровый) женский
    Cубтитры: английские
    Оригинальная аудио дорожка: английская--Режиссер: Залман Кинг / Zalman King--В ролях: Шерилин Фенн, Ричард Тайсон, Луиз Флетчер, Бёрл Айвз, Кристи МакНикол, Дон Гэллоуэй, Дэббс Грир, Мартин Хьюитт, Хуанита Мур, Милли Перкинс, Эрве Вильчэйз, Милла Йовович--Описание: Жизнь юной и обворожительной Эйприл похожа на прекрасную сказку — знатные родители, шикарный дом, бабушка — миллионерша и респектабельных жених из богатой аристократической семьи. В высшем обществе они считаются идеальной парой.
    Но за две недели до свадьбы Эйприл, беспокойная и чувственная натура, влюбляется в загадочного мускулистого красавца Перри, работающего в приехавшем в город передвижном парке аттракционов, и они с головой окунаются в омут всепоглощающей страсти…--Доп. информация: Присутствует навигация по главам--Сэмпл: http://sendfile.su/1282842--Тип релиза: BDRip 720p
    Контейнер: MKV
    Видео кодек: H.264
    Аудио кодек: AC-3, DTS
    Видео: MPEG4/AVC, 1280x694, 1.85:1, 23.976 (24000/1001) FPS, 11.5 Mb/s
    Аудио 1: RUS / DVO, AC-3, 48.0 kHz, 2.0, 192 kb/s (закадровый НТВ+)
    Аудио 2: RUS / MVO, AC-3, 48.0 kHz, 2.0, 192 kb/s (закадровый СВ Дубль)
    Аудио 3: RUS / DVO, AC-3, 48.0 kHz, 2.0, 192 kb/s (закадровый Екатеринбург Арт)
    Аудио 4: RUS / DVO, AC-3, 48.0 kHz, 2.0, 192 kb/s (двухголосный Сергей Визгунов и Нина)
    Аудио 5: RUS / AVO, AC-3, 48.0 kHz, 2.0, 192 kb/s (авторский Алексей Медведев)
    Аудио 6: RUS / VO, AC-3, 48.0 kHz, 2.0, 192 kb/s (любительский одноголосный женский)
    Аудио 7: ENG / нет, DTS, 48.0 kHz, 2.0, 1509 kb/s (оригинал)
    Формат субтитров: softsub (SRT)

    MediaInfo

    x264
    x264 [info]: frame I:844 Avg QP:15.65 size:151498
    x264 [info]: frame P:26870 Avg QP:17.33 size: 77052
    x264 [info]: frame B:123391 Avg QP:18.96 size: 57500
    Формат : Matroska
    Версия формата : Version 2
    Размер файла : 10,6 Гбайт
    Продолжительность : 1 ч. 45 м.
    Общий поток : 14,5 Мбит/сек
    Дата кодирования : UTC 2016-11-15 11:29:10
    Программа кодирования : mkvmerge v7.6.0 ('Garden of Dreams') 32bit built on Feb 11 2015 00:18:47
    Библиотека кодирования : libebml v1.3.1 + libmatroska v1.4.2
    Видео
    Идентификатор : 1
    Формат : AVC
    Формат/Информация : Advanced Video Codec
    Профиль формата : High@L4.1
    Параметр CABAC формата : Да
    Параметр ReFrames формата : 9 кадров
    Идентификатор кодека : V_MPEG4/ISO/AVC
    Продолжительность : 1 ч. 45 м.
    Битрейт : 11,5 Мбит/сек
    Ширина : 1280 пикселей
    Высота : 694 пикселя
    Соотношение сторон : 1,85:1
    Режим частоты кадров : Постоянный
    Частота кадров : 23,976 (24000/1001) кадра/сек
    Цветовое пространство : YUV
    Субдискретизация насыщенности : 4:2:0
    Битовая глубина : 8 бит
    Тип развёртки : Прогрессивная
    Бит/(Пиксели*Кадры) : 0.541
    Размер потока : 8,45 Гбайт (80%)
    Библиотека кодирования : x264 core 148 r2721 72d53ab
    Настройки программы : cabac=1 / ref=9 / deblock=1:-3:-3 / analyse=0x3:0x113 / me=umh / subme=10 / psy=1 / psy_rd=0.90:0.00 / mixed_ref=1 / me_range=32 / chroma_me=1 / trellis=2 / 8x8dct=1 / cqm=0 / deadzone=21,11 / fast_pskip=1 / chroma_qp_offset=-2 / threads=4 / lookahead_threads=1 / sliced_threads=0 / nr=0 / decimate=0 / interlaced=0 / bluray_compat=0 / constrained_intra=0 / bframes=12 / b_pyramid=2 / b_adapt=2 / b_bias=0 / direct=1 / weightb=1 / open_gop=0 / weightp=2 / keyint=240 / keyint_min=23 / scenecut=40 / intra_refresh=0 / rc_lookahead=60 / rc=crf / mbtree=0 / crf=17.0 / qcomp=0.68 / qpmin=0 / qpmax=69 / qpstep=4 / vbv_maxrate=62500 / vbv_bufsize=78125 / crf_max=0.0 / nal_hrd=none / filler=0 / ip_ratio=1.40 / pb_ratio=1.20 / aq=2:0.77
    Default : Да
    Forced : Нет
    Statistics Tags Issue : mkvmerge v9.5.0 ('Quiet Fire') 32bit 2016-11-13 18:26:58 / mkvmerge v7.6.0 ('Garden of Dreams') 32bit built on Feb 11 2015 00:18:47 2016-11-15 11:29:10
    FromStats_BitRate : 11796600
    FromStats_Duration : 01:45:02.338000000
    FromStats_FrameCount : 151105
    FromStats_StreamSize : 9293270629
    Аудио #1
    Идентификатор : 2
    Формат : AC-3
    Формат/Информация : Audio Coding 3
    Расширение режима : CM (complete main)
    Параметр Endianness формата : Big
    Идентификатор кодека : A_AC3
    Продолжительность : 1 ч. 45 м.
    Вид битрейта : Постоянный
    Битрейт : 192 Кбит/сек
    Каналы : 2 канала
    Расположение каналов : Front: L R
    Частота : 48,0 КГц
    Частота кадров : 31,250 кадров/сек (1536 spf)
    Битовая глубина : 16 бит
    Метод сжатия : С потерями
    Размер потока : 144 Мбайт (1%)
    Заголовок : закадровый HTB+
    Язык : Russian
    Default : Да
    Forced : Нет
    Аудио #2
    Идентификатор : 3
    Формат : AC-3
    Формат/Информация : Audio Coding 3
    Расширение режима : CM (complete main)
    Параметр Endianness формата : Big
    Идентификатор кодека : A_AC3
    Продолжительность : 1 ч. 45 м.
    Вид битрейта : Постоянный
    Битрейт : 192 Кбит/сек
    Каналы : 2 канала
    Расположение каналов : Front: L R
    Частота : 48,0 КГц
    Частота кадров : 31,250 кадров/сек (1536 spf)
    Битовая глубина : 16 бит
    Метод сжатия : С потерями
    Размер потока : 144 Мбайт (1%)
    Заголовок : закадровый СВ Дубль
    Язык : Russian
    Default : Нет
    Forced : Нет
    Аудио #3
    Идентификатор : 4
    Формат : AC-3
    Формат/Информация : Audio Coding 3
    Расширение режима : CM (complete main)
    Параметр Endianness формата : Big
    Идентификатор кодека : A_AC3
    Продолжительность : 1 ч. 45 м.
    Вид битрейта : Постоянный
    Битрейт : 192 Кбит/сек
    Каналы : 2 канала
    Расположение каналов : Front: L R
    Частота : 48,0 КГц
    Частота кадров : 31,250 кадров/сек (1536 spf)
    Битовая глубина : 16 бит
    Метод сжатия : С потерями
    Размер потока : 144 Мбайт (1%)
    Заголовок : закадровый Екатеринбург Арт
    Язык : Russian
    Default : Нет
    Forced : Нет
    Аудио #4
    Идентификатор : 5
    Формат : AC-3
    Формат/Информация : Audio Coding 3
    Расширение режима : CM (complete main)
    Параметр Endianness формата : Big
    Идентификатор кодека : A_AC3
    Продолжительность : 1 ч. 45 м.
    Вид битрейта : Постоянный
    Битрейт : 192 Кбит/сек
    Каналы : 2 канала
    Расположение каналов : Front: L R
    Частота : 48,0 КГц
    Частота кадров : 31,250 кадров/сек (1536 spf)
    Битовая глубина : 16 бит
    Метод сжатия : С потерями
    Размер потока : 144 Мбайт (1%)
    Заголовок : двухголосный Сергей Визгунов и Нина
    Язык : Russian
    Default : Нет
    Forced : Нет
    Аудио #5
    Идентификатор : 6
    Формат : AC-3
    Формат/Информация : Audio Coding 3
    Расширение режима : CM (complete main)
    Параметр Endianness формата : Big
    Идентификатор кодека : A_AC3
    Продолжительность : 1 ч. 45 м.
    Вид битрейта : Постоянный
    Битрейт : 192 Кбит/сек
    Каналы : 2 канала
    Расположение каналов : Front: L R
    Частота : 48,0 КГц
    Частота кадров : 31,250 кадров/сек (1536 spf)
    Битовая глубина : 16 бит
    Метод сжатия : С потерями
    Размер потока : 144 Мбайт (1%)
    Заголовок : авторский Алексей Медведев
    Язык : Russian
    Default : Нет
    Forced : Нет
    Аудио #6
    Идентификатор : 7
    Формат : AC-3
    Формат/Информация : Audio Coding 3
    Расширение режима : CM (complete main)
    Параметр Endianness формата : Big
    Идентификатор кодека : A_AC3
    Продолжительность : 1 ч. 45 м.
    Вид битрейта : Постоянный
    Битрейт : 192 Кбит/сек
    Каналы : 2 канала
    Расположение каналов : Front: L R
    Частота : 48,0 КГц
    Частота кадров : 31,250 кадров/сек (1536 spf)
    Битовая глубина : 16 бит
    Метод сжатия : С потерями
    Размер потока : 144 Мбайт (1%)
    Заголовок : любительский одноголосый женский
    Язык : Russian
    Default : Нет
    Forced : Нет
    Аудио #7
    Идентификатор : 8
    Формат : DTS
    Формат/Информация : Digital Theater Systems
    Режим : 16
    Параметр Endianness формата : Big
    Идентификатор кодека : A_DTS
    Продолжительность : 1 ч. 45 м.
    Вид битрейта : Постоянный
    Битрейт : 1509 Кбит/сек
    Каналы : 2 канала
    Расположение каналов : Front: L R
    Частота : 48,0 КГц
    Частота кадров : 93,750 кадра/сек (512 spf)
    Битовая глубина : 24 бит
    Метод сжатия : С потерями
    Размер потока : 1,11 Гбайт (10%)
    Заголовок : оригинал
    Язык : English
    Default : Нет
    Forced : Нет
    Текст
    Идентификатор : 9
    Формат : UTF-8
    Идентификатор кодека : S_TEXT/UTF8
    Идентификатор кодека/Информация : UTF-8 Plain Text
    Заголовок : английские
    Язык : English
    Default : Нет
    Forced : Нет
    Меню
    00:00:00.000 : en:00:00:00.000
    00:05:54.312 : en:00:05:54.312
    00:13:53.374 : en:00:13:53.374
    00:19:35.757 : en:00:19:35.757
    00:26:33.675 : en:00:26:33.675
    00:30:53.017 : en:00:30:53.017
    00:36:38.571 : en:00:36:38.571
    00:44:44.515 : en:00:44:44.515
    00:49:56.910 : en:00:49:56.910
    00:58:15.783 : en:00:58:15.783
    01:05:37.558 : en:01:05:37.558
    01:09:29.832 : en:01:09:29.832
    01:18:37.003 : en:01:18:37.003
    01:31:41.662 : en:01:31:41.662
    01:37:55.995 : en:01:37:55.995
    01:40:49.918 : en:01:40:49.918

    Скриншоты

    Сравнение с исходником

    http://screenshotcomparison.com/comparison/190751/picture:0
    Скачать .torrent

    Скачать торрент-файл бесплатно и на максимальной скорости!

    Как скачивать? · Что такое торрент? · Рейтинг и ограничения

    !ВНИМАНИЕ!
    Сайт не распространяет и не хранит электронные версии произведений, а занимается лишь лишь предоставлением доступа к создаваемому пользователями каталогу ссылок на торрент-файлы, которые содержат только списки хеш-сумм, убедительная просьба с жалобами обращаться напрямую к пользователю. Файлы для обмена на трекере предоставлены пользователями сайта, и администрация не несёт ответственности за их содержание. Просьба не заливать файлы, защищенные авторскими правами, а также файлы нелегального содержания!


    _________________
    [Профиль] [ЛС]
    Показать сообщения:    
    Ответить на тему

    Текущее время: Сегодня, в 18:29

    Часовой пояс: GMT + 2



    Вы не можете начинать темы
    Вы не можете отвечать на сообщения
    Вы не можете редактировать свои сообщения
    Вы не можете удалять свои сообщения
    Вы не можете голосовать в опросах
    Вы не можете прикреплять файлы к сообщениям
    Вы не можете скачивать файлы