BitTorrentTracker PerecTracker.org
BitTorrentTracker PerecTracker.org
    
Регистрация  ·  Вход
 
 · 
Забыли пароль?

  • Дивергент / Divergent (Нил Бёргер / Neil Burger) [2014, США, фантастика, боевик, приключения, BDRip-AVC] [RUS Transfer / Open Matte] Dub + Sub Rus Eng + Original Eng

    Ответить на тему
     
    Автор Сообщение

    Light

    Создавать темы 27-Ноя-2016 20:55

           

    [Цитировать]

    Дивергент / Divergent / RUS Transfer / Open Matte
    -BDRemux-1080p | BDRip-AVC | HDRip-Страна: США
    Жанр: фантастика, боевик, приключения
    Год выпуска: 2014
    Продолжительность: 02:19:32
    Перевод: Профессиональный (дублированный)
    Cубтитры: русские, английские
    Оригинальная аудиодорожка: английский
    Режиссер: Нил Бёргер / Neil Burger
    В ролях: Шейлин Вудли, Тео Джеймс, Джай Кортни, Кейт Уинслет, Зои Кравиц, Майлз Теллер, Эшли Джадд, Тони Голдуин, Мэгги Кью, Рэй Стивенсон
    Описание: Действие развивается на Земле в будущем, в деспотичном Чикаго. Все подростки, достигшие 16 лет, обязаны выбрать одну из пяти фракций и присоединиться к ней на всю оставшуюся жизнь. Каждая фракция представляет определенное качество: Искренность, Отречение, Бесстрашие, Дружелюбие и Эрудиция.
    Доп. информация: Open Matte версия фильма. Различия BD US Transfer и RUS Transfer - разное наполнение кадра - 16:9 (1.78:1) -> http://screenshotcomparison.com/comparison/169327
    Сэмпл: http://multi-up.com/1128346
    Качество видео: BDRip-AVC Исходник
    Формат видео: MKV
    Видео: MPEG-4 AVC/H.264 / 2107 kbps / 1024x576 / 24.000 fps
    Аудио: DUB (Rus) / AC3 / 6 ch / 448 kbps / 48 kHz
    Аудио 2: Original (Eng) / AC3 / 6 ch / 448 kbps / 48 kHz
    Формат субтитров: softsub (SRT)
    Доп. информация о субтитрах: Русские (2x full), Английские (3x full)
    #Сохранены оригинальные чаптеры как на Blu-ray

    MediaInfo

    General
    Unique ID : 237968990130578175901488401533703551780 (0xB307290F80C50D81A4A65621987BFB24)
    Complete name : J:\Torrents\Дивергент (2014) BDRemux-1080p [RUS Transfer].mkv
    Format : Matroska
    Format version : Version 2
    File size : 2.93 GiB
    Duration : 2h 19mn
    Overall bit rate : 3 005 Kbps
    Movie name : Дивергент / Divergent (2014) [RUS Transfer / Open Matte]
    Encoded date : UTC 2016-11-23 05:33:00
    Writing application : mkvmerge v5.5.0 ('Healer') built on Apr 24 2012 23:47:03
    Writing library : libebml v1.2.3 + libmatroska v1.3.0
    Attachements : cover.jpg
    Video
    ID : 1
    Format : AVC
    Format/Info : Advanced Video Codec
    Format profile : High@L4.1
    Format settings, CABAC : Yes
    Format settings, ReFrames : 2 frames
    Codec ID : V_MPEG4/ISO/AVC
    Duration : 2h 19mn
    Bit rate : 2 107 Kbps
    Width : 1 024 pixels
    Height : 576 pixels
    Display aspect ratio : 16:9
    Frame rate mode : Constant
    Frame rate : 24.000 fps
    Color space : YUV
    Chroma subsampling : 4:2:0
    Bit depth : 8 bits
    Scan type : Progressive
    Bits/(Pixel*Frame) : 0.149
    Stream size : 2.00 GiB (68%)
    Title : BDRip (AVC) / MPEG-4 AVC/H.264 / 2107 kbps / 1024x576 / 24.000 fps
    Writing library : x264 core 142
    Encoding settings : cabac=1 / ref=1 / deblock=1:-1:-1 / analyse=0x3:0 / me=hex / subme=5 / psy=0 / mixed_ref=0 / me_range=16 / chroma_me=1 / trellis=0 / 8x8dct=1 / cqm=0 / deadzone=21,11 / fast_pskip=0 / chroma_qp_offset=0 / threads=4 / lookahead_threads=1 / sliced_threads=0 / nr=0 / decimate=1 / interlaced=0 / bluray_compat=0 / constrained_intra=0 / bframes=2 / b_pyramid=0 / b_adapt=1 / b_bias=0 / direct=1 / weightb=0 / open_gop=0 / weightp=0 / keyint=24 / keyint_min=13 / scenecut=40 / intra_refresh=0 / rc=2pass / mbtree=0 / bitrate=2107 / ratetol=1.0 / qcomp=0.60 / qpmin=0 / qpmax=69 / qpstep=4 / cplxblur=20.0 / qblur=0.5 / ip_ratio=1.40 / pb_ratio=1.30 / aq=1:1.00
    Language : English
    Default : Yes
    Forced : Yes
    Color range : Limited
    Color primaries : BT.601 NTSC
    Transfer characteristics : BT.709
    Matrix coefficients : BT.601
    Audio #1
    ID : 2
    Format : AC-3
    Format/Info : Audio Coding 3
    Mode extension : CM (complete main)
    Format settings, Endianness : Big
    Codec ID : A_AC3
    Duration : 2h 19mn
    Bit rate mode : Constant
    Bit rate : 448 Kbps
    Channel(s) : 6 channels
    Channel positions : Front: L C R, Side: L R, LFE
    Sampling rate : 48.0 KHz
    Frame rate : 31.250 fps (1536 spf)
    Compression mode : Lossy
    Stream size : 447 MiB (15%)
    Title : DUB (Rus) / AC3 / 6 ch / 448 kbps / 48 kHz
    Language : Russian
    Default : Yes
    Forced : Yes
    Audio #2
    ID : 3
    Format : AC-3
    Format/Info : Audio Coding 3
    Mode extension : CM (complete main)
    Format settings, Endianness : Big
    Codec ID : A_AC3
    Duration : 2h 19mn
    Bit rate mode : Constant
    Bit rate : 448 Kbps
    Channel(s) : 6 channels
    Channel positions : Front: L C R, Side: L R, LFE
    Sampling rate : 48.0 KHz
    Frame rate : 31.250 fps (1536 spf)
    Compression mode : Lossy
    Stream size : 447 MiB (15%)
    Title : Original (Eng) / AC3 / 6 ch / 448 kbps / 48 kHz
    Language : English
    Default : No
    Forced : No
    Text #1
    ID : 4
    Format : UTF-8
    Codec ID : S_TEXT/UTF8
    Codec ID/Info : UTF-8 Plain Text
    Title : Full 1 (Rus) / S_TEXT/UTF8
    Language : Russian
    Default : No
    Forced : No
    Text #2
    ID : 5
    Format : UTF-8
    Muxing mode : zlib
    Codec ID : S_TEXT/UTF8
    Codec ID/Info : UTF-8 Plain Text
    Title : Full 2 (Rus) / S_TEXT/UTF8
    Language : Russian
    Default : No
    Forced : No
    Text #3
    ID : 6
    Format : UTF-8
    Codec ID : S_TEXT/UTF8
    Codec ID/Info : UTF-8 Plain Text
    Title : Full (Eng) / S_TEXT/UTF8
    Language : English
    Default : No
    Forced : No
    Text #4
    ID : 7
    Format : UTF-8
    Codec ID : S_TEXT/UTF8
    Codec ID/Info : UTF-8 Plain Text
    Title : Full [SDH] (Eng) / S_TEXT/UTF8
    Language : English
    Default : No
    Forced : No
    Text #5
    ID : 8
    Format : UTF-8
    Codec ID : S_TEXT/UTF8
    Codec ID/Info : UTF-8 Plain Text
    Title : Full [SDH Colored] (Eng) / S_TEXT/UTF8
    Language : English
    Default : No
    Forced : No
    Menu
    00:00:00.000 : en:Chapter 1
    00:00:04.000 : en:Chapter 2
    00:15:32.708 : en:Chapter 3
    00:33:57.916 : en:Chapter 4
    00:51:47.083 : en:Chapter 5
    01:06:32.125 : en:Chapter 6
    01:25:05.166 : en:Chapter 7
    01:46:17.041 : en:Chapter 8
    01:57:51.666 : en:Chapter 9

    Скриншот c названием фильма

    Скриншоты

    Скачать .torrent

    Скачать торрент-файл бесплатно и на максимальной скорости!

    Как скачивать? · Что такое торрент? · Рейтинг и ограничения

    !ВНИМАНИЕ!
    Сайт не распространяет и не хранит электронные версии произведений, а занимается лишь лишь предоставлением доступа к создаваемому пользователями каталогу ссылок на торрент-файлы, которые содержат только списки хеш-сумм, убедительная просьба с жалобами обращаться напрямую к пользователю. Файлы для обмена на трекере предоставлены пользователями сайта, и администрация не несёт ответственности за их содержание. Просьба не заливать файлы, защищенные авторскими правами, а также файлы нелегального содержания!


    _________________
    [Профиль] [ЛС]
    Показать сообщения:    
    Ответить на тему

    Текущее время: Сегодня, в 00:22

    Часовой пояс: GMT + 2



    Вы не можете начинать темы
    Вы не можете отвечать на сообщения
    Вы не можете редактировать свои сообщения
    Вы не можете удалять свои сообщения
    Вы не можете голосовать в опросах
    Вы не можете прикреплять файлы к сообщениям
    Вы не можете скачивать файлы