Register  ·  Log in
Forgot password?

  • Наёмник: Отпущение грехов / Absolution (Киони Ваксман / Keoni Waxman) [2015, США, Румыния, Боевик, Триллер, Криминал, Приключения, HDRip] VO

    Reply to topic
    Author Message


    Post 06-Jul-2015 19:53



    Наёмник: Отпущение грехов
    -Год выпуска: 2015
    Страна: США, Румыния
    Жанр: Боевик, Триллер, Криминал, Приключения
    Продолжительность: 01:31:27
    Перевод: Одноголосый закадровый [Хихикающий доктор по переводу Enigma]
    Субтитры: нет
    Оригинальная аудиодорожка: нет-Режиссер: Киони Ваксман-В ролях: Стивен Сигал, Байрон Манн, Ховард Делл, Адина Стетцу, Винни Джонс, Джош Барнетт, Мария Бата, Серджиу Костаке, Джордж Ремис-Описание: Когда на пути наёмного убийцы попадается девушка, убегающая от рук опасного босса мафии с мощными политическими связями и управляющий бизнесом по торговле людьми, он разрывается между её защитой и верностью государству, которое его наняло.- -Семпл:Качество видео: HDRip
    Формат видео: AVI
    Видео: 720x400 (1.80:1), 25 fps, XviD build 73 ~1812 kbps avg, 0.25 bit/pixel
    Аудио: 48 kHz, AC3 Dolby Digital, 3/2 (L,C,R,l,r) + LFE ch, ~448 kbps-


    Complete name : Mercenary.Absolution.2015.xixidok.HDRip.1400.ExKinoRay.avi
    Format : AVI
    Format/Info : Audio Video Interleave
    File size : 1.45 GiB
    Duration : 1h 31mn
    Overall bit rate : 2 270 Kbps
    Writing application : VirtualDubMod (build 2540/release)
    Writing library : VirtualDubMod build 2540/release
    Copyright : ExKinoRay
    ID : 0
    Format : MPEG-4 Visual
    Format profile : Advanced Simple@L5
    Format settings, BVOP : 1
    Format settings, QPel : No
    Format settings, GMC : No warppoints
    Format settings, Matrix : Custom
    Codec ID : XVID
    Codec ID/Hint : XviD
    Duration : 1h 31mn
    Bit rate : 1 813 Kbps
    Width : 720 pixels
    Height : 400 pixels
    Display aspect ratio : 16:9
    Frame rate : 25.000 fps
    Color space : YUV
    Chroma subsampling : 4:2:0
    Bit depth : 8 bits
    Scan type : Progressive
    Compression mode : Lossy
    Bits/(Pixel*Frame) : 0.252
    Stream size : 1.16 GiB (80%)
    Writing library : XviD 73
    ID : 1
    Format : AC-3
    Format/Info : Audio Coding 3
    Mode extension : CM (complete main)
    Format settings, Endianness : Big
    Codec ID : 2000
    Duration : 1h 31mn
    Bit rate mode : Constant
    Bit rate : 448 Kbps
    Channel(s) : 6 channels
    Channel positions : Front: L C R, Side: L R, LFE
    Sampling rate : 48.0 KHz
    Bit depth : 16 bits
    Compression mode : Lossy
    Stream size : 293 MiB (20%)
    Alignment : Split accross interleaves
    Interleave, duration : 40 ms (1.00 video frame)
    Interleave, preload duration : 500 ms
    Title : xixidok


    Download .torrent

    Download free and at maximum speed!

    How to Download? · What is a torrent? · Ratings and Limitations

    The site does not extend and does not store electronic(digital) versions of products, and only gives access to a reference catalogue created by users on torrent-files which contain only lists of the hash-sums, the earnest entreaty, with complaints(abuse) to access directly to the user. Files for an exchange on tracker are given by users of a site, and the administration does not bear the responsibility for their maintenance. The request to not fill in the files protected by copyrights, and also files of the illegal maintenance!

    [Profile] [PM]
    Display posts from previous:    
    Reply to topic

    The time now is: Today 15:12

    All times are GMT + 3 Hours

    You cannot post new topics in this forum
    You cannot reply to topics in this forum
    You cannot edit your posts in this forum
    You cannot delete your posts in this forum
    You cannot vote in polls in this forum
    You cannot attach files in this forum
    You cannot download files in this forum