BitTorrentTracker PerecTracker.org
BitTorrentTracker PerecTracker.org
    
Регистрация  ·  Вход
 
 · 
Забыли пароль?

  • (Psy Trance) [CD] VA - New Electronic Oscillations - 2003, FLAC (tracks+.cue), lossless

    Ответить на тему
     
    Автор Сообщение

    Columb

    Создавать темы 27-Ноя-2016 13:59

           

    [Цитировать]

    New Electronic Oscillations
    Жанр: Psy Trance
    Носитель: CD
    Год издания: 2003
    Издатель (лейбл): Transient Records
    Номер по каталогу: TRANR647 CD
    Аудиокодек: FLAC (*.flac)
    Тип рипа: tracks+.cue
    Битрейт аудио: lossless
    Продолжительность: 01:14:56
    Источник (релизер): обмен
    Наличие сканов в содержимом раздачи: да
    Треклист:
    1. D-Tek - Encounter (7:43)
    2. Chromosome - Tripship (9:58)
    3. Aphid Moon - Jimmey (8:35)
    4. Triptych - Contact (DJ Kuma's Front Room Remix) (8:12)
    5. Life Extension - Ticket to the moon (remix) (8:16)
    6. Sirius Isness - Electrical Impulses (7:30)
    7. Psypilot - Over unity (8:30)
    8. Quadra - Revolution of Sound (8:28)
    9. Triptych - Foggy Dream (7:43)

    Лог создания рипа

    X Lossless Decoder version 20120609 (141.0)
    XLD extraction logfile from 2012-08-18 15:24:12 +0100
    Various Artists / NEO - New Electronic Oscillations
    Used drive : HL-DT-ST DVD-RW GH61N (revision PA03)
    Ripper mode : XLD Secure Ripper
    Disable audio cache : OK for the drive with a cache less than 1375KiB
    Make use of C2 pointers : NO
    Read offset correction : 667
    Max retry count : 20
    Gap status : Analyzed, Appended (except HTOA)
    TOC of the extracted CD
    Track | Start | Length | Start sector | End sector
    ---------------------------------------------------------
    1 | 00:00:00 | 07:42:40 | 0 | 34689
    2 | 07:42:40 | 09:58:34 | 34690 | 79573
    3 | 17:40:74 | 08:35:37 | 79574 | 118235
    4 | 26:16:36 | 08:12:13 | 118236 | 155148
    5 | 34:28:49 | 08:16:14 | 155149 | 192362
    6 | 42:44:63 | 07:30:25 | 192363 | 226137
    7 | 50:15:13 | 08:30:11 | 226138 | 264398
    8 | 58:45:24 | 08:27:67 | 264399 | 302490
    9 | 67:13:16 | 07:43:06 | 302491 | 337221
    AccurateRip Summary (DiscID: 001a18b6-00becad7-72119009)
    Track 01 : Not Found
    Track 02 : Not Found
    Track 03 : Not Found
    Track 04 : Not Found
    Track 05 : Not Found
    Track 06 : Not Found
    Track 07 : Not Found
    Track 08 : Not Found
    Track 09 : Not Found
    ->0 track accurately ripped, 9 tracks not found
    All Tracks
    Album gain : -5.39 dB
    Peak : 0.998871
    Statistics
    Read error : 0
    Jitter error (maybe fixed) : 0
    Retry sector count : 3
    Damaged sector count : 0
    Track 01
    Filename : /Volumes/Transfer Instruments Samples /FLAC/Various Artists - New Electronic Oscillations (2003) [FLAC] {Transient Records - TRANR647CD}/01 - D-Tek - Encounter.flac
    Pre-gap length : 00:02:00
    Track gain : -4.21 dB
    Peak : 0.998871
    CRC32 hash (test run) : 36A85AD7
    CRC32 hash : 36A85AD7
    CRC32 hash (skip zero) : 1EBE306B
    AccurateRip v1 signature : BDE2DACB
    AccurateRip v2 signature : E92D5456
    ->Track not present in AccurateRip database.
    Statistics
    Read error : 0
    Jitter error (maybe fixed) : 0
    Retry sector count : 0
    Damaged sector count : 0
    Track 02
    Filename : /Volumes/Transfer Instruments Samples /FLAC/Various Artists - New Electronic Oscillations (2003) [FLAC] {Transient Records - TRANR647CD}/02 - Chromosome - Tripship.flac
    Pre-gap length : 00:02:58
    Track gain : -3.35 dB
    Peak : 0.998871
    CRC32 hash (test run) : 56A6DA83
    CRC32 hash : 56A6DA83
    CRC32 hash (skip zero) : 3B325C38
    AccurateRip v1 signature : 4042954D
    AccurateRip v2 signature : 5CB0BC41
    ->Track not present in AccurateRip database.
    Statistics
    Read error : 0
    Jitter error (maybe fixed) : 0
    Retry sector count : 0
    Damaged sector count : 0
    Track 03
    Filename : /Volumes/Transfer Instruments Samples /FLAC/Various Artists - New Electronic Oscillations (2003) [FLAC] {Transient Records - TRANR647CD}/03 - Aphid Moon - Jimmey.flac
    Pre-gap length : 00:02:58
    Track gain : -6.31 dB
    Peak : 0.998871
    CRC32 hash (test run) : 8C927370
    CRC32 hash : 8C927370
    CRC32 hash (skip zero) : D9D16C3F
    AccurateRip v1 signature : 392022FA
    AccurateRip v2 signature : 5B2BDC0E
    ->Track not present in AccurateRip database.
    Statistics
    Read error : 0
    Jitter error (maybe fixed) : 0
    Retry sector count : 0
    Damaged sector count : 0
    Track 04
    Filename : /Volumes/Transfer Instruments Samples /FLAC/Various Artists - New Electronic Oscillations (2003) [FLAC] {Transient Records - TRANR647CD}/04 - Triptych - Contact (DJ Kuma's Front Room Remix).flac
    Pre-gap length : 00:02:58
    Track gain : -4.71 dB
    Peak : 0.998871
    CRC32 hash (test run) : 5A80F4F4
    CRC32 hash : 5A80F4F4
    CRC32 hash (skip zero) : 78FE1F45
    AccurateRip v1 signature : 647941B0
    AccurateRip v2 signature : 9ACE543C
    ->Track not present in AccurateRip database.
    Statistics
    Read error : 0
    Jitter error (maybe fixed) : 0
    Retry sector count : 0
    Damaged sector count : 0
    Track 05
    Filename : /Volumes/Transfer Instruments Samples /FLAC/Various Artists - New Electronic Oscillations (2003) [FLAC] {Transient Records - TRANR647CD}/05 - Life Extension - Ticket to the moon (remix).flac
    Pre-gap length : 00:02:58
    Track gain : -6.36 dB
    Peak : 0.998871
    CRC32 hash (test run) : 4373A7D2
    CRC32 hash : 4373A7D2
    CRC32 hash (skip zero) : 5A5441B1
    AccurateRip v1 signature : 73E57819
    AccurateRip v2 signature : E6142783
    ->Track not present in AccurateRip database.
    Statistics
    Read error : 0
    Jitter error (maybe fixed) : 0
    Retry sector count : 0
    Damaged sector count : 0
    Track 06
    Filename : /Volumes/Transfer Instruments Samples /FLAC/Various Artists - New Electronic Oscillations (2003) [FLAC] {Transient Records - TRANR647CD}/06 - Sirius Isness - Electrical Impulses.flac
    Pre-gap length : 00:02:58
    Track gain : -4.54 dB
    Peak : 0.998871
    CRC32 hash (test run) : 33FAEF4E
    CRC32 hash : 33FAEF4E
    CRC32 hash (skip zero) : 738EF8AF
    AccurateRip v1 signature : 38ECC0A5
    AccurateRip v2 signature : 8C763D6A
    ->Track not present in AccurateRip database.
    Statistics
    Read error : 0
    Jitter error (maybe fixed) : 0
    Retry sector count : 3
    Damaged sector count : 0
    Track 07
    Filename : /Volumes/Transfer Instruments Samples /FLAC/Various Artists - New Electronic Oscillations (2003) [FLAC] {Transient Records - TRANR647CD}/07 - Psypilot - Over unity.flac
    Pre-gap length : 00:02:58
    Track gain : -5.37 dB
    Peak : 0.980835
    CRC32 hash (test run) : E83B7172
    CRC32 hash : E83B7172
    CRC32 hash (skip zero) : BE00C423
    AccurateRip v1 signature : 2728AAE0
    AccurateRip v2 signature : 517B5C3C
    ->Track not present in AccurateRip database.
    Statistics
    Read error : 0
    Jitter error (maybe fixed) : 0
    Retry sector count : 0
    Damaged sector count : 0
    Track 08
    Filename : /Volumes/Transfer Instruments Samples /FLAC/Various Artists - New Electronic Oscillations (2003) [FLAC] {Transient Records - TRANR647CD}/08 - Quadra - Revolution of Sound.flac
    Pre-gap length : 00:02:58
    Track gain : -5.73 dB
    Peak : 0.998871
    CRC32 hash (test run) : 4E561F41
    CRC32 hash : 4E561F41
    CRC32 hash (skip zero) : FF841CC1
    AccurateRip v1 signature : 9A11DDAE
    AccurateRip v2 signature : FA8101DE
    ->Track not present in AccurateRip database.
    Statistics
    Read error : 0
    Jitter error (maybe fixed) : 0
    Retry sector count : 0
    Damaged sector count : 0
    Track 09
    Filename : /Volumes/Transfer Instruments Samples /FLAC/Various Artists - New Electronic Oscillations (2003) [FLAC] {Transient Records - TRANR647CD}/09 - Triptych - Foggy Dream.flac
    Pre-gap length : 00:02:58
    Track gain : -6.22 dB
    Peak : 0.998871
    CRC32 hash (test run) : 72925792
    CRC32 hash : 72925792
    CRC32 hash (skip zero) : 53D58859
    AccurateRip v1 signature : C3769797
    AccurateRip v2 signature : B2914A9B
    ->Track not present in AccurateRip database.
    Statistics
    Read error : 0
    Jitter error (maybe fixed) : 0
    Retry sector count : 0
    Damaged sector count : 0
    No errors occurred
    End of status report

    Содержание индексной карты (.CUE)

    PERFORMER "Various Artists"
    TITLE "NEO - New Electronic Oscillations"
    REM GENRE "Electronic"
    REM DATE "2003"
    REM DISCID 72119009
    REM REPLAYGAIN_ALBUM_GAIN -5.39 dB
    REM REPLAYGAIN_ALBUM_PEAK 0.998871
    FILE "01 - D-Tek - Encounter.flac" WAVE
    TRACK 01 AUDIO
    TITLE "Encounter"
    PERFORMER "D-Tek"
    REM REPLAYGAIN_TRACK_GAIN -4.21 dB
    REM REPLAYGAIN_TRACK_PEAK 0.998871
    INDEX 01 00:00:00
    TRACK 02 AUDIO
    TITLE "Tripship"
    PERFORMER "Chromosome"
    ISRC GBCDK0364702
    REM REPLAYGAIN_TRACK_GAIN -3.35 dB
    REM REPLAYGAIN_TRACK_PEAK 0.998871
    INDEX 00 07:39:57
    FILE "02 - Chromosome - Tripship.flac" WAVE
    INDEX 01 00:00:00
    TRACK 03 AUDIO
    TITLE "Jimmey"
    PERFORMER "Aphid Moon"
    ISRC GBCDK0364703
    REM REPLAYGAIN_TRACK_GAIN -6.31 dB
    REM REPLAYGAIN_TRACK_PEAK 0.998871
    INDEX 00 09:55:51
    FILE "03 - Aphid Moon - Jimmey.flac" WAVE
    INDEX 01 00:00:00
    TRACK 04 AUDIO
    TITLE "Contact (DJ Kuma's Front Room Remix)"
    PERFORMER "Triptych"
    REM REPLAYGAIN_TRACK_GAIN -4.71 dB
    REM REPLAYGAIN_TRACK_PEAK 0.998871
    INDEX 00 08:32:54
    FILE "04 - Triptych - Contact (DJ Kuma's Front Room Remix).flac" WAVE
    INDEX 01 00:00:00
    TRACK 05 AUDIO
    TITLE "Ticket to the moon (remix)"
    PERFORMER "Life Extension"
    ISRC GBCDK0364705
    REM REPLAYGAIN_TRACK_GAIN -6.36 dB
    REM REPLAYGAIN_TRACK_PEAK 0.998871
    INDEX 00 08:09:30
    FILE "05 - Life Extension - Ticket to the moon (remix).flac" WAVE
    INDEX 01 00:00:00
    TRACK 06 AUDIO
    TITLE "Electrical Impulses"
    PERFORMER "Sirius Isness"
    ISRC GBCDK0364706
    REM REPLAYGAIN_TRACK_GAIN -4.54 dB
    REM REPLAYGAIN_TRACK_PEAK 0.998871
    INDEX 00 08:13:31
    FILE "06 - Sirius Isness - Electrical Impulses.flac" WAVE
    INDEX 01 00:00:00
    TRACK 07 AUDIO
    TITLE "Over unity"
    PERFORMER "Psypilot"
    REM REPLAYGAIN_TRACK_GAIN -5.37 dB
    REM REPLAYGAIN_TRACK_PEAK 0.980835
    INDEX 00 07:27:42
    FILE "07 - Psypilot - Over unity.flac" WAVE
    INDEX 01 00:00:00
    TRACK 08 AUDIO
    TITLE "Revolution of Sound"
    PERFORMER "Quadra"
    ISRC GBCDK0364708
    REM REPLAYGAIN_TRACK_GAIN -5.73 dB
    REM REPLAYGAIN_TRACK_PEAK 0.998871
    INDEX 00 08:27:28
    FILE "08 - Quadra - Revolution of Sound.flac" WAVE
    INDEX 01 00:00:00
    TRACK 09 AUDIO
    TITLE "Foggy Dream"
    PERFORMER "Triptych"
    REM REPLAYGAIN_TRACK_GAIN -6.22 dB
    REM REPLAYGAIN_TRACK_PEAK 0.998871
    INDEX 00 08:25:09
    FILE "09 - Triptych - Foggy Dream.flac" WAVE
    INDEX 01 00:00:00
    Скачать .torrent

    Скачать торрент-файл бесплатно и на максимальной скорости!

    Как скачивать? · Что такое торрент? · Рейтинг и ограничения

    !ВНИМАНИЕ!
    Сайт не распространяет и не хранит электронные версии произведений, а занимается лишь лишь предоставлением доступа к создаваемому пользователями каталогу ссылок на торрент-файлы, которые содержат только списки хеш-сумм, убедительная просьба с жалобами обращаться напрямую к пользователю. Файлы для обмена на трекере предоставлены пользователями сайта, и администрация не несёт ответственности за их содержание. Просьба не заливать файлы, защищенные авторскими правами, а также файлы нелегального содержания!

    [Профиль] [ЛС]
    Показать сообщения:    
    Ответить на тему

    Текущее время: Сегодня, в 00:20

    Часовой пояс: GMT + 2



    Вы не можете начинать темы
    Вы не можете отвечать на сообщения
    Вы не можете редактировать свои сообщения
    Вы не можете удалять свои сообщения
    Вы не можете голосовать в опросах
    Вы не можете прикреплять файлы к сообщениям
    Вы не можете скачивать файлы