BitTorrentTracker PerecTracker.org
BitTorrentTracker PerecTracker.org
    
Регистрация  ·  Вход
 
 · 
Забыли пароль?

  • (Psy-Trance) [CD] Holymen - En Od Milvado - 2007, FLAC (tracks+.cue), lossless

    Ответить на тему
     
    Автор Сообщение

    Columb

    Создавать темы 27-Ноя-2016 13:57

           

    [Цитировать]

    Holymen / En Od Milvado
    Жанр: Psy-Trance
    Носитель: CD
    Страна-производитель диска (релиза): Japan
    Год издания: 2007
    Издатель (лейбл): Enigmatic Sound Records
    Номер по каталогу: ENICD006
    Страна исполнителя (группы): Israel
    Аудиокодек: FLAC (*.flac)
    Тип рипа: tracks+.cue
    Битрейт аудио: lossless
    Продолжительность: 01:05:21
    Источник (релизер): Собственный Audio CD
    Наличие сканов в содержимом раздачи: да
    Треклист:
    01. Holymen - The World Without End [07:41]
    02. Holymen - Red Queen [06:41]
    03. Holymen - What Is Reality [07:20]
    04. Holymen - Keter [06:39]
    05. Holymen - Binah [07:11]
    06. Holymen - The Wisdom Of Kabbalah [07:37]
    07. Holymen - The Worlds Beyond [07:55]
    08. Holymen - Looking For Something...Spirit [07:17]
    09. Holymen - The Zohar [07:04]

    Лог создания рипа

    Exact Audio Copy V1.1 from 23. June 2015
    EAC extraction logfile from 14. June 2016, 22:06
    Holymen / En Od Milvado
    Used drive : PIONEER DVD-RW DVR-220L Adapter: 1 ID: 0
    Read mode : Secure
    Utilize accurate stream : Yes
    Defeat audio cache : Yes
    Make use of C2 pointers : No
    Read offset correction : 6
    Overread into Lead-In and Lead-Out : No
    Fill up missing offset samples with silence : Yes
    Delete leading and trailing silent blocks : No
    Null samples used in CRC calculations : Yes
    Used interface : Native Win32 interface for Win NT & 2000
    Gap handling : Appended to previous track
    Used output format : User Defined Encoder
    Selected bitrate : 1024 kBit/s
    Quality : High
    Add ID3 tag : No
    Command line compressor : C:\Program Files (x86)\Exact Audio Copy\flac-1.3.1-win\win64\flac.exe
    Additional command line options : -8 -V -T "ARTIST=%artist%" -T "TITLE=%title%" -T "ALBUM=%albumtitle%" -T "DATE=%year%" -T "TRACKNUMBER=%tracknr%" -T "GENRE=%genre%" -T "COMMENT=%comment%" -T "BAND=%albuminterpret%" -T "ALBUMARTIST=%albuminterpret%" -T "COMPOSER=%composer%" %haslyrics%--tag-from-file=LYRICS="%lyricsfile%"%haslyrics% -T "DISCNUMBER=%cdnumber%" -T "TOTALDISCS=%totalcds%" -T "TOTALTRACKS=%numtracks%" %hascover%--picture="%coverfile%"%hascover% %source% -o %dest%
    TOC of the extracted CD
    Track | Start | Length | Start sector | End sector
    ---------------------------------------------------------
    1 | 0:00.00 | 7:41.16 | 0 | 34590
    2 | 7:41.16 | 6:41.36 | 34591 | 64701
    3 | 14:22.52 | 7:20.04 | 64702 | 97705
    4 | 21:42.56 | 6:39.00 | 97706 | 127630
    5 | 28:21.56 | 7:10.50 | 127631 | 159930
    6 | 35:32.31 | 7:37.00 | 159931 | 194205
    7 | 43:09.31 | 7:54.71 | 194206 | 229826
    8 | 51:04.27 | 7:16.48 | 229827 | 262574
    9 | 58:21.00 | 7:03.55 | 262575 | 294354
    Track 1
    Filename D:\rips\Holymen07 - En Od Milvado. Holymen - The World Without End.wav
    Pre-gap length 0:00:02.00
    Peak level 92.3 %
    Extraction speed 0.7 X
    Track quality 100.0 %
    Test CRC 1F25D070
    Copy CRC 1F25D070
    Track not present in AccurateRip database
    Copy OK
    Track 2
    Filename D:\rips\Holymen07 - En Od Milvado. Holymen - Red Queen.wav
    Peak level 92.3 %
    Extraction speed 0.8 X
    Track quality 100.0 %
    Test CRC 63123079
    Copy CRC 63123079
    Track not present in AccurateRip database
    Copy OK
    Track 3
    Filename D:\rips\Holymen07 - En Od Milvado. Holymen - What Is Reality.wav
    Peak level 92.3 %
    Extraction speed 0.8 X
    Track quality 100.0 %
    Test CRC E891CD4A
    Copy CRC E891CD4A
    Track not present in AccurateRip database
    Copy OK
    Track 4
    Filename D:\rips\Holymen07 - En Od Milvado. Holymen - Keter.wav
    Peak level 92.3 %
    Extraction speed 0.8 X
    Track quality 100.0 %
    Test CRC 6EE7E16A
    Copy CRC 6EE7E16A
    Track not present in AccurateRip database
    Copy OK
    Track 5
    Filename D:\rips\Holymen07 - En Od Milvado. Holymen - Binah.wav
    Peak level 92.3 %
    Extraction speed 0.9 X
    Track quality 100.0 %
    Test CRC 61D8CA31
    Copy CRC 61D8CA31
    Track not present in AccurateRip database
    Copy OK
    Track 6
    Filename D:\rips\Holymen07 - En Od Milvado. Holymen - The Wisdom Of Kabbalah.wav
    Peak level 92.3 %
    Extraction speed 5.1 X
    Track quality 100.0 %
    Test CRC A30A1AE2
    Copy CRC A30A1AE2
    Track not present in AccurateRip database
    Copy OK
    Track 7
    Filename D:\rips\Holymen07 - En Od Milvado. Holymen - The Worlds Beyond.wav
    Peak level 92.3 %
    Extraction speed 5.4 X
    Track quality 100.0 %
    Test CRC D728A091
    Copy CRC D728A091
    Track not present in AccurateRip database
    Copy OK
    Track 8
    Filename D:\rips\Holymen07 - En Od Milvado. Holymen - Looking For Something...Spirit.wav
    Peak level 92.2 %
    Extraction speed 5.8 X
    Track quality 100.0 %
    Test CRC B7B395F4
    Copy CRC B7B395F4
    Track not present in AccurateRip database
    Copy OK
    Track 9
    Filename D:\rips\Holymen07 - En Od Milvado. Holymen - The Zohar.wav
    Peak level 92.3 %
    Extraction speed 6.0 X
    Track quality 100.0 %
    Test CRC AF798CE1
    Copy CRC AF798CE1
    Track not present in AccurateRip database
    Copy OK
    None of the tracks are present in the AccurateRip database
    No errors occurred
    End of status report
    ---- CUETools DB Plugin V2.1.6
    [CTDB TOCID: 8INoQnIeqr.H5gRI2BUNLOcT3Sc-] found
    Submit result: 8INoQnIeqr.H5gRI2BUNLOcT3Sc- has been confirmed
    Track | CTDB Status
    1 | (2/2) Accurately ripped
    2 | (2/2) Accurately ripped
    3 | (2/2) Accurately ripped
    4 | (1/2) Accurately ripped, or (1/2) differs in 1 samples @00:52:04
    5 | (2/2) Accurately ripped
    6 | (2/2) Accurately ripped
    7 | (2/2) Accurately ripped
    8 | (1/2) Accurately ripped, or (1/2) differs in 2 samples @03:19:24,05:14:43
    9 | (2/2) Accurately ripped
    ==== Log checksum 200F75E61057641FA161AE57F9129029FF9738354AD867B00279BDFACBB20E25 ====

    Содержание индексной карты (.CUE)

    REM GENRE Psychedelic
    REM DATE 2007
    REM DISCID 690F5409
    REM COMMENT "ExactAudioCopy v1.1"
    PERFORMER "Holymen"
    TITLE "En Od Milvado "
    FILE "01. Holymen - The World Without End.wav" WAVE
    TRACK 01 AUDIO
    TITLE "The World Without End"
    PERFORMER "Holymen"
    INDEX 01 00:00:00
    FILE "02. Holymen - Red Queen.wav" WAVE
    TRACK 02 AUDIO
    TITLE "Red Queen"
    PERFORMER "Holymen"
    INDEX 01 00:00:00
    FILE "03. Holymen - What Is Reality.wav" WAVE
    TRACK 03 AUDIO
    TITLE "What Is Reality"
    PERFORMER "Holymen"
    INDEX 01 00:00:00
    FILE "04. Holymen - Keter.wav" WAVE
    TRACK 04 AUDIO
    TITLE "Keter"
    PERFORMER "Holymen"
    INDEX 01 00:00:00
    FILE "05. Holymen - Binah.wav" WAVE
    TRACK 05 AUDIO
    TITLE "Binah"
    PERFORMER "Holymen"
    INDEX 01 00:00:00
    FILE "06. Holymen - The Wisdom Of Kabbalah.wav" WAVE
    TRACK 06 AUDIO
    TITLE "The Wisdom Of Kabbalah"
    PERFORMER "Holymen"
    INDEX 01 00:00:00
    FILE "07. Holymen - The Worlds Beyond.wav" WAVE
    TRACK 07 AUDIO
    TITLE "The Worlds Beyond"
    PERFORMER "Holymen"
    INDEX 01 00:00:00
    FILE "08. Holymen - Looking For Something...Spirit.wav" WAVE
    TRACK 08 AUDIO
    TITLE "Looking For Something...Spirit"
    PERFORMER "Holymen"
    INDEX 01 00:00:00
    FILE "09. Holymen - The Zohar.wav" WAVE
    TRACK 09 AUDIO
    TITLE "The Zohar"
    PERFORMER "Holymen"
    INDEX 01 00:00:00
    Доп. информация: https://www.discogs.com/release/985821
    Скачать .torrent

    Скачать торрент-файл бесплатно и на максимальной скорости!

    Как скачивать? · Что такое торрент? · Рейтинг и ограничения

    !ВНИМАНИЕ!
    Сайт не распространяет и не хранит электронные версии произведений, а занимается лишь лишь предоставлением доступа к создаваемому пользователями каталогу ссылок на торрент-файлы, которые содержат только списки хеш-сумм, убедительная просьба с жалобами обращаться напрямую к пользователю. Файлы для обмена на трекере предоставлены пользователями сайта, и администрация не несёт ответственности за их содержание. Просьба не заливать файлы, защищенные авторскими правами, а также файлы нелегального содержания!

    [Профиль] [ЛС]
    Показать сообщения:    
    Ответить на тему

    Текущее время: Сегодня, в 14:27

    Часовой пояс: GMT + 2



    Вы не можете начинать темы
    Вы не можете отвечать на сообщения
    Вы не можете редактировать свои сообщения
    Вы не можете удалять свои сообщения
    Вы не можете голосовать в опросах
    Вы не можете прикреплять файлы к сообщениям
    Вы не можете скачивать файлы