BitTorrentTracker PerecTracker.org
BitTorrentTracker PerecTracker.org
    
Регистрация  ·  Вход
 
 · 
Забыли пароль?

  • (Electropop) [CD] Cat5 - Cat5 - 2006, FLAC (tracks+.cue), lossless

    Ответить на тему
     
    Автор Сообщение

    Columb

    Создавать темы 27-Ноя-2016 13:29

           

    [Цитировать]

    Cat5 - Cat5
    Жанр: Electropop
    Носитель: CD
    Страна-производитель диска (релиза): Sweden
    Год издания: 2006
    Издатель (лейбл): Universal Music AB
    Номер по каталогу: 985 335-5
    Страна исполнителя (группы): Sweden
    Аудиокодек: FLAC (*.flac)
    Тип рипа: tracks+.cue
    Битрейт аудио: lossless
    Продолжительность: 34:06
    Источник (релизер): what.cd (orkyl)
    Наличие сканов в содержимом раздачи: нет
    Треклист:
    01 - Dansa comigo (3:34)
    02 - Play This Loud (2:59)
    03 - Drop the Bomb (3:14)
    04 - Skipped a Beat (3:48)
    05 - Stretch and Bend (3:20)
    06 - Sexy (3:01)
    07 - You Go Girl (3:10)
    08 - Slow Down (3:58)
    09 - Battle (3:41)
    10 - I Want You (3:22)

    Discogs.com

    Лог создания рипа

    Exact Audio Copy V1.0 beta 3 from 29. August 2011
    EAC extraction logfile from 31. May 2012, 14:52
    Cat5 / Cat5
    Used drive : _NEC DVD_RW ND-3500AG Adapter: 1 ID: 0
    Read mode : Secure
    Utilize accurate stream : Yes
    Defeat audio cache : Yes
    Make use of C2 pointers : No
    Read offset correction : 48
    Overread into Lead-In and Lead-Out : No
    Fill up missing offset samples with silence : Yes
    Delete leading and trailing silent blocks : No
    Null samples used in CRC calculations : Yes
    Used interface : Native Win32 interface for Win NT & 2000
    Gap handling : Appended to previous track
    Used output format : User Defined Encoder
    Selected bitrate : 128 kBit/s
    Quality : High
    Add ID3 tag : No
    Command line compressor : C:\Program Files (x86)\Exact Audio Copy\Flac\flac.exe
    Additional command line options : -8 -V -T "ARTIST=%artist%" -T "TITLE=%title%" -T "ALBUM=%albumtitle%" -T "DATE=%year%" -T "TRACKNUMBER=%tracknr%" -T "GENRE=%genre%" -T "PERFORMER=%albuminterpret%" -T "COMPOSER=%composer%" %haslyrics%--tag-from-file=LYRICS="%lyricsfile%"%haslyrics% -T "ALBUMARTIST=%albumartist%" -T "DISCNUMBER=%cdnumber%" -T "TOTALDISCS=%totalcds%" -T "TOTALTRACKS=%numtracks%" -T "COMMENT=%comment%" %source% -o %dest%
    TOC of the extracted CD
    Track | Start | Length | Start sector | End sector
    ---------------------------------------------------------
    1 | 0:00.00 | 3:34.34 | 0 | 16083
    2 | 3:34.34 | 2:58.47 | 16084 | 29480
    3 | 6:33.06 | 3:13.47 | 29481 | 44002
    4 | 9:46.53 | 3:48.07 | 44003 | 61109
    5 | 13:34.60 | 3:19.47 | 61110 | 76081
    6 | 16:54.32 | 3:00.59 | 76082 | 89640
    7 | 19:55.16 | 3:10.16 | 89641 | 103906
    8 | 23:05.32 | 3:57.65 | 103907 | 121746
    9 | 27:03.22 | 3:41.06 | 121747 | 138327
    10 | 30:44.28 | 3:21.62 | 138328 | 153464
    Track 1
    Filename D:\Sound\EAC Rips\Cat5 - Cat5 (2006) [FLAC] - Dansa comigo.wav
    Pre-gap length 0:00:02.00
    Peak level 100.0 %
    Extraction speed 2.9 X
    Track quality 99.9 %
    Test CRC 4F13E068
    Copy CRC 4F13E068
    Track not present in AccurateRip database
    Copy OK
    Track 2
    Filename D:\Sound\EAC Rips\Cat5 - Cat5 (2006) [FLAC] - Play This Loud.wav
    Pre-gap length 0:00:02.00
    Peak level 99.9 %
    Extraction speed 3.0 X
    Track quality 99.9 %
    Test CRC E49CCA7A
    Copy CRC E49CCA7A
    Track not present in AccurateRip database
    Copy OK
    Track 3
    Filename D:\Sound\EAC Rips\Cat5 - Cat5 (2006) [FLAC] - Drop the Bomb.wav
    Pre-gap length 0:00:02.00
    Peak level 100.0 %
    Extraction speed 4.1 X
    Track quality 100.0 %
    Test CRC 22F1E622
    Copy CRC 22F1E622
    Track not present in AccurateRip database
    Copy OK
    Track 4
    Filename D:\Sound\EAC Rips\Cat5 - Cat5 (2006) [FLAC] - Skipped a Beat.wav
    Pre-gap length 0:00:02.00
    Peak level 100.0 %
    Extraction speed 3.7 X
    Track quality 99.9 %
    Test CRC 3BFC79D0
    Copy CRC 3BFC79D0
    Track not present in AccurateRip database
    Copy OK
    Track 5
    Filename D:\Sound\EAC Rips\Cat5 - Cat5 (2006) [FLAC] - Stretch and Bend.wav
    Pre-gap length 0:00:02.00
    Peak level 96.5 %
    Extraction speed 4.7 X
    Track quality 100.0 %
    Test CRC 843A0EE4
    Copy CRC 843A0EE4
    Track not present in AccurateRip database
    Copy OK
    Track 6
    Filename D:\Sound\EAC Rips\Cat5 - Cat5 (2006) [FLAC] - Sexy.wav
    Pre-gap length 0:00:02.00
    Peak level 91.7 %
    Extraction speed 4.8 X
    Track quality 100.0 %
    Test CRC 84CD9A5F
    Copy CRC 84CD9A5F
    Track not present in AccurateRip database
    Copy OK
    Track 7
    Filename D:\Sound\EAC Rips\Cat5 - Cat5 (2006) [FLAC] - You Go Girl.wav
    Pre-gap length 0:00:02.00
    Peak level 100.0 %
    Extraction speed 4.1 X
    Track quality 99.9 %
    Test CRC DF3F1DA2
    Copy CRC DF3F1DA2
    Track not present in AccurateRip database
    Copy OK
    Track 8
    Filename D:\Sound\EAC Rips\Cat5 - Cat5 (2006) [FLAC] - Slow Down.wav
    Pre-gap length 0:00:02.00
    Peak level 100.0 %
    Extraction speed 5.5 X
    Track quality 100.0 %
    Test CRC 1924990B
    Copy CRC 1924990B
    Track not present in AccurateRip database
    Copy OK
    Track 9
    Filename D:\Sound\EAC Rips\Cat5 - Cat5 (2006) [FLAC] - Battle.wav
    Pre-gap length 0:00:02.00
    Peak level 100.0 %
    Extraction speed 1.7 X
    Track quality 99.6 %
    Test CRC A895C319
    Copy CRC A895C319
    Track not present in AccurateRip database
    Copy OK
    Track 10
    Filename D:\Sound\EAC Rips\Cat5 - Cat5 (2006) [FLAC] - I Want You.wav
    Pre-gap length 0:00:02.00
    Peak level 100.0 %
    Extraction speed 4.6 X
    Track quality 99.9 %
    Test CRC 563BC529
    Copy CRC 563BC529
    Track not present in AccurateRip database
    Copy OK
    None of the tracks are present in the AccurateRip database
    No errors occurred
    End of status report
    ---- CUETools DB Plugin V2.1.3
    [CTDB TOCID: GP3xEyICmnc2KjS_CMOKMgoIWOE-] disk not present in database, Submit result: GP3xEyICmnc2KjS_CMOKMgoIWOE- has been uploaded
    ==== Log checksum 0BC0760D8BDB2EC404C43AD4426C6711C80B8C23FDA8304650FEF23663E6763C ====

    Содержание индексной карты (.CUE)

    REM GENRE Electronic
    REM DATE 2006
    REM DISCID 8E07FE0A
    REM COMMENT "ExactAudioCopy v1.0b3"
    PERFORMER "Cat5"
    TITLE "Cat5"
    FILE "01 - Dansa comigo.wav" WAVE
    TRACK 01 AUDIO
    TITLE "Dansa comigo"
    PERFORMER "Cat5"
    INDEX 01 00:00:00
    TRACK 02 AUDIO
    TITLE "Play This Loud"
    PERFORMER "Cat5"
    INDEX 00 03:32:34
    FILE "02 - Play This Loud.wav" WAVE
    INDEX 01 00:00:00
    TRACK 03 AUDIO
    TITLE "Drop the Bomb"
    PERFORMER "Cat5"
    INDEX 00 02:56:47
    FILE "03 - Drop the Bomb.wav" WAVE
    INDEX 01 00:00:00
    TRACK 04 AUDIO
    TITLE "Skipped a Beat"
    PERFORMER "Cat5"
    INDEX 00 03:11:47
    FILE "04 - Skipped a Beat.wav" WAVE
    INDEX 01 00:00:00
    TRACK 05 AUDIO
    TITLE "Stretch and Bend"
    PERFORMER "Cat5"
    INDEX 00 03:46:07
    FILE "05 - Stretch and Bend.wav" WAVE
    INDEX 01 00:00:00
    TRACK 06 AUDIO
    TITLE "Sexy"
    PERFORMER "Cat5"
    INDEX 00 03:17:47
    FILE "06 - Sexy.wav" WAVE
    INDEX 01 00:00:00
    TRACK 07 AUDIO
    TITLE "You Go Girl"
    PERFORMER "Cat5"
    INDEX 00 02:58:59
    FILE "07 - You Go Girl.wav" WAVE
    INDEX 01 00:00:00
    TRACK 08 AUDIO
    TITLE "Slow Down"
    PERFORMER "Cat5"
    INDEX 00 03:08:16
    FILE "08 - Slow Down.wav" WAVE
    INDEX 01 00:00:00
    TRACK 09 AUDIO
    TITLE "Battle"
    PERFORMER "Cat5"
    INDEX 00 03:55:65
    FILE "09 - Battle.wav" WAVE
    INDEX 01 00:00:00
    TRACK 10 AUDIO
    TITLE "I Want You"
    PERFORMER "Cat5"
    INDEX 00 03:39:06
    FILE "10 - I Want You.wav" WAVE
    INDEX 01 00:00:00
    Скачать .torrent

    Скачать торрент-файл бесплатно и на максимальной скорости!

    Как скачивать? · Что такое торрент? · Рейтинг и ограничения

    !ВНИМАНИЕ!
    Сайт не распространяет и не хранит электронные версии произведений, а занимается лишь лишь предоставлением доступа к создаваемому пользователями каталогу ссылок на торрент-файлы, которые содержат только списки хеш-сумм, убедительная просьба с жалобами обращаться напрямую к пользователю. Файлы для обмена на трекере предоставлены пользователями сайта, и администрация не несёт ответственности за их содержание. Просьба не заливать файлы, защищенные авторскими правами, а также файлы нелегального содержания!

    [Профиль] [ЛС]
    Показать сообщения:    
    Ответить на тему

    Текущее время: Сегодня, в 20:09

    Часовой пояс: GMT + 2



    Вы не можете начинать темы
    Вы не можете отвечать на сообщения
    Вы не можете редактировать свои сообщения
    Вы не можете удалять свои сообщения
    Вы не можете голосовать в опросах
    Вы не можете прикреплять файлы к сообщениям
    Вы не можете скачивать файлы