BitTorrentTracker PerecTracker.org
BitTorrentTracker PerecTracker.org
    
Регистрация  ·  Вход
 
 · 
Забыли пароль?

  • Мой путь / Клокло / Cloclo (Флоран Эмилио Сири / Florent Emilio Siri) [2012, Франция, Бельгия, драма, биография, музыка, HDRip-AVC] MVO (AB Video) + MVO (НТВ+) + Sub Rus, Eng + Original Fre

    Ответить на тему
     
    Автор Сообщение

    Light

    Создавать темы 06-Июл-2015 18:53

           

    [Цитировать]

    Мой путь / Клокло / Cloclo
    Страна: Франция, Бельгия
    Студия: LGM Productions, Flèche Productions, 24C Prod
    Жанр: драма, биография, музыка
    Год выпуска: 2012
    Продолжительность: 02:28:40
    Перевод 1: Профессиональный (многоголосый закадровый) AB Video (по заказу 1 канала)
    Перевод 2: Профессиональный (многоголосый закадровый) НТВ+
    Cубтитры: русские, английские
    Оригинальная аудиодорожка: французский
    Режиссер: Флоран Эмилио Сири / Florent Emilio Siri
    В ролях: Жереми Ренье, Бенуа Мажимель, Моника Скаттини, Сабрина Сейвеку, Ана Жирардо, Жозефин Джепи, Maud Jurez, Марк Барбе, Эрик Савен, Софи Майстер и др.
    Описание: История жизни известного французского певца 60-х и 70-х Клода Франсуа по прозвищу Клокло вплоть до его трагической гибели 11 марта 1978 года в возрасте 39 лет.
    II Сэмпл II IMDB II
    Доп. информация:
    За исходник спасибо G00ba
    Первая дорога записана с т/к SET HD
    Качество видео: HDRip-AVC (Клокло.2012.L1.720p.BluRay.x264-EbP)
    Формат видео: MKV
    Видео: AVC / 1136x480 / 2.37:1 / 24.0fps / Bit rate 1980Kbps / b/p 0.151
    Аудио 1: AC3 / 48.0KHz / 2ch. / 192kbps / rus / mvo / AB Video
    Аудио 2: AC3 / 48.0KHz / 2ch. / 192kbps / rus / mvo / НТВ+
    Аудио 3: AC3 / 48.0KHz / 6ch. / 448kbps / fre
    Формат субтитров: softsub (SRT)

    MediaInfo

    Общее
    Уникальный идентификатор : 205382493192860596408373466544744784253 (0x9A833AB7F25A76FF973591A52EE1617D)
    Полное имя : D:\torrent\Cloclo.2012.HDRip-AVC_by_vedigo.mkv
    Формат : Matroska
    Версия формата : Version 4 / Version 2
    Размер файла : 2,92 Гбайт
    Продолжительность : 2 ч. 28 м.
    Общий поток : 2811 Кбит/сек
    Дата кодирования : UTC 2015-07-06 09:21:00
    Программа кодирования : mkvmerge v8.1.0 ('Psychedelic Postcard') 64bit
    Библиотека кодирования : libebml v1.3.1 + libmatroska v1.4.2
    DURATION : 02:27:23.041000000
    NUMBER_OF_FRAMES : 1715
    NUMBER_OF_BYTES : 47595
    _STATISTICS_WRITING_APP : mkvmerge v8.1.0 ('Psychedelic Postcard') 64bit
    _STATISTICS_WRITING_DATE_UTC : 2015-07-06 09:21:00
    _STATISTICS_TAGS : BPS DURATION NUMBER_OF_FRAMES NUMBER_OF_BYTES
    Видео
    Идентификатор : 1
    Формат : AVC
    Формат/Информация : Advanced Video Codec
    Профиль формата : High@L4.1
    Параметр CABAC формата : Да
    Параметр ReFrames формата : 15 кадров
    Идентификатор кодека : V_MPEG4/ISO/AVC
    Продолжительность : 2 ч. 28 м.
    Битрейт : 1980 Кбит/сек
    Ширина : 1136 пикселей
    Высота : 480 пикселей
    Соотношение сторон : 2,35:1
    Режим частоты кадров : Постоянный
    Частота кадров : 24,000 кадра/сек
    Цветовое пространство : YUV
    Субдискретизация насыщенности : 4:2:0
    Битовая глубина : 8 бит
    Тип развёртки : Прогрессивная
    Бит/(Пиксели*Кадры) : 0.151
    Размер потока : 2,00 Гбайт (68%)
    Заголовок : Cloclo.2012.HDRip-AVC_by_vedigo
    Библиотека кодирования : x264 core 146 r2538 121396c
    Настройки программы : cabac=1 / ref=15 / deblock=1:-3:-3 / analyse=0x3:0x133 / me=umh / subme=11 / psy=1 / psy_rd=1.00:0.10 / mixed_ref=1 / me_range=36 / chroma_me=1 / trellis=2 / 8x8dct=1 / cqm=0 / deadzone=21,11 / fast_pskip=0 / chroma_qp_offset=-3 / threads=12 / lookahead_threads=3 / sliced_threads=0 / nr=0 / decimate=1 / interlaced=0 / bluray_compat=0 / constrained_intra=0 / bframes=10 / b_pyramid=2 / b_adapt=2 / b_bias=0 / direct=3 / weightb=1 / open_gop=0 / weightp=2 / keyint=250 / keyint_min=23 / scenecut=40 / intra_refresh=0 / rc_lookahead=40 / rc=2pass / mbtree=0 / bitrate=1980 / ratetol=1.0 / qcomp=0.60 / qpmin=0 / qpmax=69 / qpstep=4 / cplxblur=20.0 / qblur=0.5 / vbv_maxrate=50000 / vbv_bufsize=62500 / nal_hrd=none / filler=0 / ip_ratio=1.40 / pb_ratio=1.30 / aq=1:1.00
    Default : Да
    Forced : Нет
    DURATION : 02:28:39.924000000
    NUMBER_OF_FRAMES : 214078
    NUMBER_OF_BYTES : 2204481033
    _STATISTICS_WRITING_APP : mkvmerge v8.1.0 ('Psychedelic Postcard') 64bit
    _STATISTICS_WRITING_DATE_UTC : 2015-07-06 09:21:00
    _STATISTICS_TAGS : BPS DURATION NUMBER_OF_FRAMES NUMBER_OF_BYTES
    Аудио #1
    Идентификатор : 2
    Формат : AC-3
    Формат/Информация : Audio Coding 3
    Расширение режима : CM (complete main)
    Параметр Endianness формата : Big
    Идентификатор кодека : A_AC3
    Продолжительность : 2 ч. 28 м.
    Вид битрейта : Постоянный
    Битрейт : 192 Кбит/сек
    Каналы : 2 канала
    Расположение каналов : Front: L R
    Частота : 48,0 КГц
    Метод сжатия : С потерями
    Размер потока : 204 Мбайт (7%)
    Заголовок : mvo @ AB Video
    Язык : Russian
    Default : Да
    Forced : Нет
    Аудио #2
    Идентификатор : 3
    Формат : AC-3
    Формат/Информация : Audio Coding 3
    Расширение режима : CM (complete main)
    Параметр Endianness формата : Big
    Идентификатор кодека : A_AC3
    Продолжительность : 2 ч. 28 м.
    Вид битрейта : Постоянный
    Битрейт : 192 Кбит/сек
    Каналы : 2 канала
    Расположение каналов : Front: L R
    Частота : 48,0 КГц
    Метод сжатия : С потерями
    Размер потока : 204 Мбайт (7%)
    Заголовок : mvo @ НТВ+
    Язык : Russian
    Default : Нет
    Forced : Нет
    Аудио #3
    Идентификатор : 4
    Формат : AC-3
    Формат/Информация : Audio Coding 3
    Расширение режима : CM (complete main)
    Параметр Endianness формата : Big
    Идентификатор кодека : A_AC3
    Продолжительность : 2 ч. 28 м.
    Вид битрейта : Постоянный
    Битрейт : 448 Кбит/сек
    Каналы : 6 каналов
    Расположение каналов : Front: L C R, Side: L R, LFE
    Частота : 48,0 КГц
    Метод сжатия : С потерями
    Размер потока : 476 Мбайт (16%)
    Заголовок : AC3 @ 6ch
    Язык : French
    Default : Нет
    Forced : Нет
    Текст #1
    Идентификатор : 5
    Формат : UTF-8
    Идентификатор кодека : S_TEXT/UTF8
    Идентификатор кодека/Информация : UTF-8 Plain Text
    Заголовок : subtitle rus @ Janetta
    Язык : Russian
    Default : Нет
    Forced : Нет
    Текст #2
    Идентификатор : 6
    Формат : UTF-8
    Идентификатор кодека : S_TEXT/UTF8
    Идентификатор кодека/Информация : UTF-8 Plain Text
    Заголовок : subtitle eng
    Язык : English
    Default : Нет
    Forced : Нет

    Скриншот c названием фильма

    Скриншоты


    Скачать .torrent

    Скачать торрент-файл бесплатно и на максимальной скорости!

    Как скачивать? · Что такое торрент? · Рейтинг и ограничения

    !ВНИМАНИЕ!
    Сайт не распространяет и не хранит электронные версии произведений, а занимается лишь лишь предоставлением доступа к создаваемому пользователями каталогу ссылок на торрент-файлы, которые содержат только списки хеш-сумм, убедительная просьба с жалобами обращаться напрямую к пользователю. Файлы для обмена на трекере предоставлены пользователями сайта, и администрация не несёт ответственности за их содержание. Просьба не заливать файлы, защищенные авторскими правами, а также файлы нелегального содержания!


    _________________
    [Профиль] [ЛС]
    Показать сообщения:    
    Ответить на тему

    Текущее время: Сегодня, в 19:57

    Часовой пояс: GMT + 2



    Вы не можете начинать темы
    Вы не можете отвечать на сообщения
    Вы не можете редактировать свои сообщения
    Вы не можете удалять свои сообщения
    Вы не можете голосовать в опросах
    Вы не можете прикреплять файлы к сообщениям
    Вы не можете скачивать файлы