BitTorrentTracker PerecTracker.org
BitTorrentTracker PerecTracker.org
    
Регистрация  ·  Вход
 
 · 
Забыли пароль?

  • Тёмная лошадка / The Dark Horse / Genesis (Джеймс Напье / James Napier Robertson) [2014, Новая Зеландия, драма, BDRip] AVO (Карповский)

    Ответить на тему
     
    Автор Сообщение

    Light

    Создавать темы 27-Ноя-2016 04:20

           

    [Цитировать]

    Тёмная лошадка / The Dark Horse / Genesis
    Страна: Новая Зеландия
    Студия: Four Knights Film, Southern Light Films
    Жанр: Драма
    Год выпуска: 2014
    Продолжительность: 02:04:29
    Перевод: Авторский (одноголосый закадровый) Антон Карповский
    Cубтитры: нет
    Оригинальная аудиодорожка: нет
    Режиссер: Джеймс Напье / James Napier Robertson
    В ролях: Клифф Кёртис, Джеймс Роллестон, Кирк Торранс, Мириама Макдауэлл, Джеймс Напье, Бэрри Те Хира, Ксавьер Хоран, Уэйн Хэпи, Лель Тиму, Тэ Аэранги Ретимана-Мартин
    Описание: Фильм основан на реальных событиях. В основе сюжета - нелёгкая жизнь двух братьев, один из которых - Арики, - доживает жизнь старым бандитом, а второй Дженесис - полжизни провел в психушках, где от скуки научился отлично играть в шахматы. По мнению врачей Дженесис не может жить без опекуна, поэтому его отпускают на поруки к брату. Однако, тот не стал долго возиться с проблемным родственником, и попросил его уйти на все четыре стороны. Дженесис как может борется за обретение смысла в этом мире, где ни он сам, ни брат его, уже никому не нужны. Такими же ненужными растут и дети вокруг. Борясь за место под солнцем Дженесис находит своё призвание в шахматном клубе для проблемных детей "Восточные Кони", с которыми едет на крупный турнир в Окленд. Этот фильм о победе духа над немощью. И каждый идет к своей победе своими путями. Многих забирает из жизни поражение, но иные уходят навсегда как мифический жрец Тохунгу - в царство духов, ибо явили при этой жизни духовный подвиг выдающегося содержания.
    Дополнительная информация:
    Автор релиза -
    Заказ перевода у Антона Карповского (ноябрь 2016) - ylnian
    За сборку дороги спасибо rammzez
    Источник для рипа - Blu-Ray (GER) - The.Dark.Horse.2014.DUAL.COMPLETE.BLURAY-BDA
    Описание - из рецензии Антона Карповского
    Внимание! В переводе присутствует ненормативная лексика!


    Сэмпл: https://yadi.sk/i/QjY46Ot0zSYgD
    Качество видео: BDRip
    Формат видео: AVI
    Видео: XviD, 720x304 (2,35:1), 23.976 fps, 1288 kbps, 0.245 bit/pixel
    Аудио: Русский AC3, 48000 Гц, 6ch, 384 kbps

    MediaInfo

    General
    Complete name : E:\The.Dark.Horse.2014.BDRip-ylnian.avi
    Format : AVI
    Format/Info : Audio Video Interleave
    File size : 1.46 GiB
    Duration : 2 h 4 min
    Overall bit rate : 1 681 kb/s
    Writing application : VirtualDubMod 1.5.10.2 (build 2540/release)
    Writing library : VirtualDubMod build 2540/release
    Video
    ID : 0
    Format : MPEG-4 Visual
    Format profile : Advanced Simple@L5
    Format settings, BVOP : 1
    Format settings, QPel : No
    Format settings, GMC : No warppoints
    Format settings, Matrix : Default (MPEG)
    Codec ID : XVID
    Codec ID/Hint : XviD
    Duration : 2 h 4 min
    Bit rate : 1 288 kb/s
    Width : 720 pixels
    Height : 304 pixels
    Display aspect ratio : 2.35:1
    Frame rate : 23.976 (24000/1001) FPS
    Color space : YUV
    Chroma subsampling : 4:2:0
    Bit depth : 8 bits
    Scan type : Progressive
    Compression mode : Lossy
    Bits/(Pixel*Frame) : 0.245
    Stream size : 1.12 GiB (77%)
    Writing library : XviD 67
    Audio
    ID : 1
    Format : AC-3
    Format/Info : Audio Coding 3
    Mode extension : CM (complete main)
    Format settings, Endianness : Big
    Codec ID : 2000
    Duration : 2 h 4 min
    Bit rate mode : Constant
    Bit rate : 384 kb/s
    Channel(s) : 6 channels
    Channel positions : Front: L C R, Side: L R, LFE
    Sampling rate : 48.0 kHz
    Frame rate : 31.250 FPS (1536 spf)
    Bit depth : 16 bits
    Compression mode : Lossy
    Stream size : 342 MiB (23%)
    Alignment : Split accross interleaves
    Interleave, duration : 42 ms (1.00 video frame)
    Interleave, preload duratio : 500 ms
    Title : RUS - AVO - Karpovsky

    Скриншот c названием фильма

    Скриншоты

    Скачать .torrent

    Скачать торрент-файл бесплатно и на максимальной скорости!

    Как скачивать? · Что такое торрент? · Рейтинг и ограничения

    !ВНИМАНИЕ!
    Сайт не распространяет и не хранит электронные версии произведений, а занимается лишь лишь предоставлением доступа к создаваемому пользователями каталогу ссылок на торрент-файлы, которые содержат только списки хеш-сумм, убедительная просьба с жалобами обращаться напрямую к пользователю. Файлы для обмена на трекере предоставлены пользователями сайта, и администрация не несёт ответственности за их содержание. Просьба не заливать файлы, защищенные авторскими правами, а также файлы нелегального содержания!


    _________________
    [Профиль] [ЛС]
    Показать сообщения:    
    Ответить на тему

    Текущее время: Сегодня, в 16:39

    Часовой пояс: GMT + 2



    Вы не можете начинать темы
    Вы не можете отвечать на сообщения
    Вы не можете редактировать свои сообщения
    Вы не можете удалять свои сообщения
    Вы не можете голосовать в опросах
    Вы не можете прикреплять файлы к сообщениям
    Вы не можете скачивать файлы