BitTorrentTracker PerecTracker.org
BitTorrentTracker PerecTracker.org
    
Регистрация  ·  Вход
 
 · 
Забыли пароль?

  • Мы с дедушкой (Александр Кулямин) [2013, Драма, семейный, WEB-Rip]

    Ответить на тему
     
    Автор Сообщение

    Flirldrerve

    Создавать темы 26-Ноя-2016 22:15

           

    [Цитировать]

    Мы с дедушкой
    Жанр: Драма, семейный
    Год выпуска: 2013
    Продолжительность: 01:33:36
    Режиссёр: Александр Кулямин
    В ролях: Юрий Назаров, Тимофей Разуваев, Алексей Тихонов, Екатерина Альбрандт, Людмила Мальцева, Ольга Воронцова, Галина Чурилина, Олег Иванов
    Описание: Картина рассказывает о мальчике, который всю жизнь прожил в городе и о деревне имеет смутные представления. Но однажды его отправят на каникулы к дедушке. Будут ссоры, непонимание, и только случай, который чуть не стоил деду жизни, всё изменит.
    Сэмпл: http://multi-up.com/1110141
    Качество видео: WEB-Rip
    Формат видео: AVI
    Видео: XviD, 720x400 (16:9), 2117 кбит/сек, 25,000 кадров/сек
    Аудио: AC-3, 44,1 КГц, 128 кбит/сек, 2 канала

    MediaInfo

    Формат : AVI
    Формат/Информация : Audio Video Interleave
    Профиль формата : OpenDML
    Размер файла : 1,48 Гбайт
    Продолжительность : 1 ч. 33 м.
    Общий поток : 2257 Кбит/сек
    Программа кодирования : XviD4PSP 6.0 / 54.29.105
    Видео
    Идентификатор : 0
    Формат : xvid
    Идентификатор кодека : xvid
    Продолжительность : 1 ч. 33 м.
    Битрейт : 2117 Кбит/сек
    Ширина : 720 пикселей
    Высота : 400 пикселей
    Соотношение сторон : 16:9
    Частота кадров : 25,000 кадров/сек
    Тип развёртки : Прогрессивная
    Бит/(Пиксели*Кадры) : 0.294
    Размер потока : 1,38 Гбайт (94%)
    Аудио
    Идентификатор : 1
    Формат : AC-3
    Формат/Информация : Audio Coding 3
    Расширение режима : CM (complete main)
    Параметр Endianness формата : Big
    Идентификатор кодека : 2000
    Продолжительность : 1 ч. 33 м.
    Вид битрейта : Постоянный
    Битрейт : 128 Кбит/сек
    Каналы : 2 канала
    Расположение каналов : Front: L R
    Частота : 44,1 КГц
    Частота кадров : 28,711 кадров/сек (1536 spf)
    Битовая глубина : 16 бит
    Метод сжатия : С потерями
    Размер потока : 85,7 Мбайт (6%)
    Выравнивание : Соединение по промежуткам
    Продолжительность промежутка : 35 мс. (0,87 видеокадр)

    Скриншоты


    Скачать .torrent

    Скачать торрент-файл бесплатно и на максимальной скорости!

    Как скачивать? · Что такое торрент? · Рейтинг и ограничения

    !ВНИМАНИЕ!
    Сайт не распространяет и не хранит электронные версии произведений, а занимается лишь лишь предоставлением доступа к создаваемому пользователями каталогу ссылок на торрент-файлы, которые содержат только списки хеш-сумм, убедительная просьба с жалобами обращаться напрямую к пользователю. Файлы для обмена на трекере предоставлены пользователями сайта, и администрация не несёт ответственности за их содержание. Просьба не заливать файлы, защищенные авторскими правами, а также файлы нелегального содержания!


    _________________
    [Профиль] [ЛС]
    Показать сообщения:    
    Ответить на тему

    Текущее время: Сегодня, в 16:29

    Часовой пояс: GMT + 2



    Вы не можете начинать темы
    Вы не можете отвечать на сообщения
    Вы не можете редактировать свои сообщения
    Вы не можете удалять свои сообщения
    Вы не можете голосовать в опросах
    Вы не можете прикреплять файлы к сообщениям
    Вы не можете скачивать файлы