BitTorrentTracker PerecTracker.org
BitTorrentTracker PerecTracker.org
    
Регистрация  ·  Вход
 
 · 
Забыли пароль?

  • Божественные / Divines (Уда Беньямина / Houda Benyamina) [2016, Франция, драма, криминальный, HDRip] (Professor) + Sub Rus + Original Fre

    Ответить на тему
     
    Автор Сообщение

    rechyn

    Создавать темы 26-Ноя-2016 22:15

           

    [Цитировать]

    Божественные / Divines
    Страна: Франция
    Жанр: драма, криминальный
    Год выпуска: 2016
    Продолжительность: 01:47:16-Перевод: Субтитры Professor
    Cубтитры: русские
    Оригинальная аудиодорожка: французский-Режиссер: Уда Беньямина / Houda Benyamina-В ролях: Улайя Амамра, Дебора Лукумуена, Кевин Мишель, Иска Кальванда, Ясин Уиша-Описание: 15-летняя хулиганка Дуня из парижского гетто жаждет власти и успеха. Заручившись поддержкой своей лучшей подруги Маймуны, она решает влиться в сеть наркоторговцев. Но когда Дуня встречает молодого танцовщика Дигия, для нее приоткрывается дверь в совершенно иную жизнь.-Доп. информация: -Сэмпл: http://multi-up.com/1128506-Качество видео: HDRip
    Формат видео: MKV-Видео: AVC, 720х304, 2.35:1, 24.000 FPS, 1 186 kb/s
    Аудио: AAC, 48.0 kHz, 318 kb/s, 6 channels
    Формат субтитров: softsub (SSA/ASS)

    MediaInfo

    General
    Unique ID : 333761670785931727119032323304681908651 (0xFB1828DBE884F7C0B93CF2DF486429AB)
    Complete name : Divines.2016.HDRip.x264.AAC5.1-OzZY1.mkv
    Format : Matroska
    Format version : Version 4 / Version 2
    File size : 1.13 GiB
    Duration : 1 h 47 min
    Overall bit rate : 1 502 kb/s
    Encoded date : UTC 2016-11-25 13:40:57
    Writing application : mkvmerge v9.5.0 ('Quiet Fire') 64bit
    Writing library : libebml v1.3.4 + libmatroska v1.4.5
    Video
    ID : 1
    Format : AVC
    Format/Info : Advanced Video Codec
    Format profile : High@L3.1
    Format settings, CABAC : Yes
    Format settings, ReFrames : 5 frames
    Codec ID : V_MPEG4/ISO/AVC
    Duration : 1 h 46 min
    Bit rate : 1 186 kb/s
    Width : 720 pixels
    Height : 304 pixels
    Display aspect ratio : 2.35:1
    Frame rate mode : Constant
    Frame rate : 24.000 FPS
    Color space : YUV
    Chroma subsampling : 4:2:0
    Bit depth : 8 bits
    Scan type : Progressive
    Bits/(Pixel*Frame) : 0.226
    Stream size : 907 MiB (79%)
    Writing library : x264 core 133 r2334 a3ac64b
    Encoding settings : cabac=1 / ref=5 / deblock=1:-1:-1 / analyse=0x3:0x113 / me=hex / subme=7 / psy=1 / psy_rd=1.00:0.15 / mixed_ref=1 / me_range=16 / chroma_me=1 / trellis=1 / 8x8dct=1 / cqm=0 / deadzone=21,11 / fast_pskip=1 / chroma_qp_offset=-3 / threads=6 / lookahead_threads=1 / sliced_threads=0 / nr=0 / decimate=1 / interlaced=0 / bluray_compat=0 / constrained_intra=0 / bframes=3 / b_pyramid=2 / b_adapt=1 / b_bias=0 / direct=1 / weightb=1 / open_gop=0 / weightp=2 / keyint=250 / keyint_min=24 / scenecut=40 / intra_refresh=0 / rc_lookahead=40 / rc=2pass / mbtree=1 / bitrate=1186 / ratetol=1.0 / qcomp=0.60 / qpmin=0 / qpmax=69 / qpstep=4 / cplxblur=20.0 / qblur=0.5 / ip_ratio=1.40 / aq=1:1.00
    Default : Yes
    Forced : No
    Audio
    ID : 2
    Format : AAC
    Format/Info : Advanced Audio Codec
    Format profile : LC
    Codec ID : A_AAC
    Duration : 1 h 47 min
    Bit rate : 318 kb/s
    Channel(s) : 6 channels
    Channel positions : Front: L C R, Side: L R, LFE
    Sampling rate : 48.0 kHz
    Frame rate : 46.875 FPS (1024 spf)
    Compression mode : Lossy
    Delay relative to video : 9 ms
    Stream size : 244 MiB (21%)
    Language : French
    Default : Yes
    Forced : No
    Text
    ID : 3
    Format : ASS
    Codec ID : S_TEXT/ASS
    Codec ID/Info : Advanced Sub Station Alpha
    Duration : 1 h 41 min
    Bit rate : 88 b/s
    Count of elements : 741
    Compression mode : Lossless
    Stream size : 66.0 KiB (0%)
    Language : Russian
    Default : Yes
    Forced : No

    Скриншот c названием фильма

    Скриншоты

    Скачать .torrent

    Скачать торрент-файл бесплатно и на максимальной скорости!

    Как скачивать? · Что такое торрент? · Рейтинг и ограничения

    !ВНИМАНИЕ!
    Сайт не распространяет и не хранит электронные версии произведений, а занимается лишь лишь предоставлением доступа к создаваемому пользователями каталогу ссылок на торрент-файлы, которые содержат только списки хеш-сумм, убедительная просьба с жалобами обращаться напрямую к пользователю. Файлы для обмена на трекере предоставлены пользователями сайта, и администрация не несёт ответственности за их содержание. Просьба не заливать файлы, защищенные авторскими правами, а также файлы нелегального содержания!


    _________________
    [Профиль] [ЛС]
    Показать сообщения:    
    Ответить на тему

    Текущее время: Сегодня, в 20:03

    Часовой пояс: GMT + 2



    Вы не можете начинать темы
    Вы не можете отвечать на сообщения
    Вы не можете редактировать свои сообщения
    Вы не можете удалять свои сообщения
    Вы не можете голосовать в опросах
    Вы не можете прикреплять файлы к сообщениям
    Вы не можете скачивать файлы